ML
     
  Уважаемый Гость!
Вы можете поддержать проект и зарегистрироваться у наших партнеров - онлайн-стратегия MyLands. При регистрации в игре Вы получите код, который сможете активировать после регистрации на pirat.ca и получить 1000 дублонов.

Ваш код:
2ab820e1ebe71772b15671f7fa7cacfa77991617
 
     

Фокусы с монетами от Джея Сэнки / Coin Deceptions Magic - Jay Sankey's [2016, Фокусы, ENG]

Ответить на тему
 
Автор
Сообщение

Пост 12-Июл-2016 21:08

[Q] 

Alex79

Морской Волк

-Фокусы с монетами от Джея Сэнки / Coin Deceptions Magic - Jay Sankey's-- Страна: США
Тематика: Фокусы
Тип раздаваемого материала: Видеоурок
Продолжительность: 02:26:57
Год выпуска: 2016
Язык: Английский
Перевод: Отсутствует
Описание: Ведущий и владелец сайта InsideDeception.com Джей Сэнки показывает фокусы с монетами, после чего раскрывает их секреты.
Курс поделен на две категории: простые фокусы (папка Basic) и фокусы для продвинутых, более сложные (папка Advanced)
Качество видео: WEB-DLRip-AVC
Видео кодек: MPEG4 AVC
Аудио кодек: AAC
Видео: 640x480 - 1920x1080
Material from InsideDeception.com as of June 1st, 2016:
(Basic)

01 "No Way Out"-> A short length of clear tape makes a BIG difference with this transposition.
02 "Seed Money" -> This relatively small coin trick packs a BIG punch.
03 "Reversal Of Fortune" -> The 'visual aids' make this transposition all the more surprising.
04 "Hypothesis Production" -> A seamless combination of script + actions to create a mysterious coin production.
05 "M.A.G.I.C." -> Powerful mentalism with just a few coins.
06 "Silver Fission" -> A 'visually perfect' technique for splitting one coin into TWO.
07 "Last Coin Trick" -> An unusual solution to the challenge of a 'complete' coin vanish
08 "Snatch Production" -> The coin truly looks like it appears from nowhere!
09 "Java Transpo" -> Add mystery to a classic transposition with an ordinary coffee filter.
10 "Piggy Bag" -> A quick mystery with a coin and a plastic baggie
11 "French Drop" -> An extremely deceptive variation on the classic technique.
12 "Slydini Coin Sequence" -> The coin vanishes + reappears while the hands are shown undeniably empty.
13 "In The Pocket" -> A baffling 'anytime anywhere' penetration effect.
14 "Seated Vanish" -> A complete and startling vanish of a coin.
15 "Secret Passages" -> Very magical routine with 2 playing cards, 4 coins and a napkin. Classic lesson in misdirection.
16 "Two In Hand" -> Dependable 'anytime anywhere' piece of magic. Demonstrates the power of repetition.
(Advanced)
17 "Rolling Thunder" -> Fun and surprising quick trick with 2 coins.
18 "Ups And Downs" -> An extremely magical 1-coin version of "çoins through the table."
19 "Mexican Jumping Coins" -> One of the most difficult coin routines Jay has created to date.
20 "Rollover" -> One of Jay's most performed 'coins across' routines.
21 "Royal Rivet" -> A surreal and surprising combination of effects with a selected card.
22 "Push Button" -> An unusual and very visual routine with 4 coins and a card case.
23 "Wrinkle In Time" -> A very strange moment of coin magic. A 'blip' in space and time.
24 "Slick Splits" -> A super visual production of 4 coins.
25 "Strike Three" -> A powerful effect that will require a lot of practice.
26 "The Combination Vanish" -> A fresh combination of a retention vanish and an automatic load-in for the 'pinch.'
27 "Freshly Squeezed" -> Remarkably minimal coin transposition combining H.P.C. and a squeeze pouch.
28 " Slow Motion Coins" -> A very deceptive + economical handling for the classic 'coins across' trick.
29 "Slide Vanish" -> This convincing, low-key sleight requires and an especially 'light touch.'
30 "Inception" -> A marked coin magically appears inside a soda or beer can.
31 "Snatch Production" -> While clearly showing your hands empty, produce a coin from 'thin air.' Definitely a bit knacky.
32 "Corkscrew Vanish" -> Use this technique to vanish or change a coin. The rhythm of the motion is the key.
33 "Collector's Item" -> An initialled coin vanishes and appears in an impossible location under 'test conditions.'
Общее
Полное имя :\[InsideDeception.com] Coin Deceptions Magic Training Videos\1 Basic\French Drop.mp4
Формат : MPEG-4
Профиль формата : Base Media / Version 2
Идентификатор кодека : mp42 (mp42/mp41/isom/avc1)
Размер файла : 4,89 Мбайт
Продолжительность : 47 с.
Режим общего битрейта : Переменный
Общий поток : 865 Кбит/сек
Дата кодирования : UTC 2013-09-17 16:53:56
Дата пометки : UTC 2013-09-17 16:53:56
Видео
Идентификатор : 1
Формат : AVC
Формат/Информация : Advanced Video Codec
Профиль формата : [email protected]
Параметр CABAC формата : Да
Параметр ReFrames формата : 4 кадра
Идентификатор кодека : avc1
Идентификатор кодека/Информация : Advanced Video Coding
Продолжительность : 47 с.
Битрейт : 750 Кбит/сек
Ширина : 640 пикселей
Высота : 480 пикселей
Соотношение сторон : 4:3
Режим частоты кадров : Постоянный
Частота кадров : 29,970 (29970/1000) кадров/сек
Цветовое пространство : YUV
Субдискретизация насыщенности : 4:2:0
Битовая глубина : 8 бит
Тип развёртки : Прогрессивная
Бит/(Пиксели*Кадры) : 0.081
Размер потока : 4,25 Мбайт (87%)
Библиотека кодирования : x264 core 129 r2245 bc13772
Настройки программы : cabac=1 / ref=3 / deblock=1:0:0 / analyse=0x3:0x113 / me=hex / subme=7 / psy=1 / psy_rd=1.00:0.00 / mixed_ref=1 / me_range=16 / chroma_me=1 / trellis=1 / 8x8dct=1 / cqm=0 / deadzone=21,11 / fast_pskip=1 / chroma_qp_offset=-2 / threads=12 / lookahead_threads=2 / sliced_threads=0 / nr=0 / decimate=1 / interlaced=0 / bluray_compat=0 / constrained_intra=0 / bframes=3 / b_pyramid=2 / b_adapt=1 / b_bias=0 / direct=1 / weightb=1 / open_gop=0 / weightp=2 / keyint=90 / keyint_min=30 / scenecut=40 / intra_refresh=0 / rc_lookahead=40 / rc=2pass / mbtree=1 / bitrate=750 / ratetol=1.0 / qcomp=0.60 / qpmin=5 / qpmax=69 / qpstep=4 / cplxblur=20.0 / qblur=0.5 / vbv_maxrate=1125 / vbv_bufsize=3750 / nal_hrd=none / ip_ratio=1.40 / aq=1:1.00
Дата кодирования : UTC 2013-09-17 16:53:56
Дата пометки : UTC 2013-09-17 16:53:56
Аудио
Идентификатор : 2
Формат : AAC
Формат/Информация : Advanced Audio Codec
Профиль формата : LC
Идентификатор кодека : 40
Продолжительность : 47 с.
Продолжительность оригинала : 47 с.
Вид битрейта : Переменный
Битрейт : 109 Кбит/сек
Каналы : 2 канала
Расположение каналов : Front: L R
Частота : 48,0 КГц
Частота кадров : 46,875 кадров/сек (1024 spf)
Метод сжатия : С потерями
Размер потока : 634 Кбайт (13%)
Размер потока оригинала : 634 Кбайт (13%)
Дата кодирования : UTC 2013-09-17 16:53:56
Дата пометки : UTC 2013-09-17 16:53:56
Download / Скачать

Хотите скачать бесплатно? Зарегистрируйтесь на сайте (ссылка на регистрацию). Pirat.ca - самый быстрый торрент трекер в рунете!

Как скачивать  ·   Что такое торрент  ·   Рейтинг и ограничения

a_barat

Гроза морей

3264

Пост 13-Июл-2016 12:28 (спустя 15 часов)

[Q] 

Посмотрим, заценим

_________________
This message represents an official view of the voices in my head af
[Профиль]  [ЛС] 
Показать сообщения:    
Ответить на тему

Текущее время: Сегодня 04:41

Часовой пояс: GMT + 4



Вы не можете начинать темы
Вы не можете отвечать на сообщения
Вы не можете редактировать свои сообщения
Вы не можете удалять свои сообщения
Вы не можете голосовать в опросах
Вы не можете прикреплять файлы к сообщениям
Вы не можете скачивать файлы

▼ Вниз