ML
     
  Уважаемый Гость!
Вы можете поддержать проект и зарегистрироваться у наших партнеров - онлайн-стратегия MyLands. При регистрации в игре Вы получите код, который сможете активировать после регистрации на pirat.ca и получить 1000 дублонов.

Ваш код:
2a6cff92c463038da5823967b6289abe51e80f68
 
     

Обман сознания / Messing With Minds, Performed by Jay Sankey [2016, Фокусы, ENG]

Ответить на тему
 
Автор
Сообщение

Пост 16-Июл-2016 01:18

[Q] 

Alex79

Морской Волк

-Обман сознания / Messing With Minds, Performed by Jay Sankey-- Страна: США
Тематика: Фокусы
Тип раздаваемого материала: Видеоурок
Rip с сайта: InsideDeception.com
Продолжительность: 02:10:34
Год выпуска: 2016
Язык: Английский
Перевод: Отсутствует
Описание: Джей Сэнки в этот раз показывает фокусы с различными предметами, в том числе, так любимыми ему картами.
Также все делится на две категории: Basic - простые фокусы и Advanced - для продвинутых
Качество видео: WEB-DLRip
Видео кодек: MPEG4 AVC
Аудио кодек: AAC
Видео: 640x480 - 1920x1080
Material from InsideDeception.com as of June 1st, 2016:
(Basic)

01 "Perfect Timing" -> Very 'fair-looking' prediction effect with clock faces.
02 "The Midnight Hour" -> A psychic effect that's ALL about the 'staging.'
03 "Psychic's Choice" -> A quick introduction to the art of equivoque.
04 "Resistance Is Futile" -> A novel presentation and handling for a 'psychic connection' effect.
05 "Shuffle Cut Deal" -> One of the few card tricks where 'dealing piles' is actually worth it!
06 "Hide, Keep and Give Away" -> A 3-phase mentalism routine with a pack of cards. A mini lesson in 'structuring.'
07 "Reenactment" -> Minimal sleight-of-hand plus a compelling presentation makes for a memorable psychic routine.
08 "Locked Room Mystery" -> This astounding deception can be performed OVER THE PHONE!
09 "Graffiti" -> A spectator's own name appears on a playing card.
10 "M+Mental" -> A sweet effect with a bag of M+M's candies.
11 "Simply Divine" -> A beautifully DIRECT deception with a shuffled pack of cards. Total 'workhorse.'
12 "Glass Menagerie" -> This 'appearing prediction' is a memorable combination of magic + mentalism.
13 "Shape Of Things To Come" -> A real showstopper involving a pack of blank cards featuring a variety of shapes
14 "Color Blind" -> Mr. Boris Pocus shares another powerhouse psychic demonstration.
15 "X-Ray" -> Share the spotlight by demonstrating that the spectator 'may be a little psychic as well.'
16 "Heartbeat" -> An ancient principle combined with an engaging script.
17 "Third Eye" -> Very theatrical stand-up piece with a paper bag and an eye ball. Many built-in emotional hooks.
18 "Constellation" -> Dead easy way to demonstrate a 'psychic connection' with another person. Also a neat bit of self-promotion.
(Advanced)
19 "Dowsing" -> Commercial version of classic 'psychic touch' theme.
20 "Echo" -> A SLIGHTLY gimmicked version of the classic 'Do As I Do' effect.
21 "Remote Control" -> A psychic 'stop trick' with a shocking kicker ending.
22 "Printed Matters" -> 100% impromptu 'book test' with a borrowed book and a pack of cards.
23 "Sankey's Choice" -> A marvellously easy-to-perform trick, with an effective collection of secret 'outs.'
24 "Confession" -> A visually arresting version of Paul Curry's 'Out of this World' effect.
25 "Casualties Of War" -> A fool-proof psychic trick with a very different 'look and feel.'
26 "Formal Affair" -> Two different kinds of 'spoon bends' happen at the same time.
27 "3 Times Lucky" -> A hard-hitting prediction effect featuring Jay's 'Wichita Slip.'
28 "Around The World" -> Prediction effect featuring a devious envelope with many possibilities.
29 "Blackpool Effect" -> A jaw-dropping combination of mentalism and magic.
30 "Sentient" -> A great way to connect with people while establishing your 'psychic powers'
31 "The Laying On Of Hands" -> A 3-phase psychic routine with a killer 'build.'
32 "Dollars + Sense" -> Very commercial prediction effect with store receipts.
33 "Why Is Mentalism More Believable?" -> Some thoughts about why people may often find mentalism more credible than magic.
34 "A Choice Effect" -> Fool-proof prediction with tarot cards. SUPER sneaky!
35 "Paperclipped Premonition" -> A 'between the eyes' mentalism version of Jay's popular 'Paperclipped' routine.
36 "Two Kinds" -> Impromptu card effect combining magic and mentalism.
37 "Serial Killer" -> Divine the serial number on a borrowed bill. Powerful stuff.
Общее
Полное имя : \[InsideDeception.com] Messing With Minds Magic Training Videos\1 Basic\Glass Menagerie.mp4
Формат : MPEG-4
Профиль формата : Base Media / Version 2
Идентификатор кодека : mp42 (mp42/mp41/isom/avc1)
Размер файла : 41,4 Мбайт
Продолжительность : 6 м. 41 с.
Режим общего битрейта : Переменный
Общий поток : 865 Кбит/сек
Дата кодирования : UTC 2014-01-18 20:53:16
Дата пометки : UTC 2014-01-18 20:53:16
Примечание : +*halofubar*+
Видео
Идентификатор : 1
Формат : AVC
Формат/Информация : Advanced Video Codec
Профиль формата : [email protected]
Параметр CABAC формата : Да
Параметр ReFrames формата : 4 кадра
Идентификатор кодека : avc1
Идентификатор кодека/Информация : Advanced Video Coding
Продолжительность : 6 м. 41 с.
Битрейт : 750 Кбит/сек
Ширина : 640 пикселей
Высота : 480 пикселей
Соотношение сторон : 4:3
Режим частоты кадров : Постоянный
Частота кадров : 29,970 (30000/1001) кадров/сек
Цветовое пространство : YUV
Субдискретизация насыщенности : 4:2:0
Битовая глубина : 8 бит
Тип развёртки : Прогрессивная
Бит/(Пиксели*Кадры) : 0.081
Размер потока : 35,8 Мбайт (87%)
Библиотека кодирования : x264 core 140 r2377 1ca7bb9
Настройки программы : cabac=1 / ref=3 / deblock=1:0:0 / analyse=0x3:0x113 / me=hex / subme=7 / psy=1 / psy_rd=1.00:0.00 / mixed_ref=1 / me_range=16 / chroma_me=1 / trellis=1 / 8x8dct=1 / cqm=0 / deadzone=21,11 / fast_pskip=1 / chroma_qp_offset=-2 / threads=12 / lookahead_threads=2 / sliced_threads=0 / nr=0 / decimate=1 / interlaced=0 / bluray_compat=0 / stitchable=1 / constrained_intra=0 / bframes=3 / b_pyramid=2 / b_adapt=1 / b_bias=0 / direct=1 / weightb=1 / open_gop=0 / weightp=2 / keyint=90 / keyint_min=30 / scenecut=40 / intra_refresh=0 / rc_lookahead=40 / rc=2pass / mbtree=1 / bitrate=750 / ratetol=1.0 / qcomp=0.60 / qpmin=5 / qpmax=69 / qpstep=4 / cplxblur=20.0 / qblur=0.5 / vbv_maxrate=1125 / vbv_bufsize=3750 / nal_hrd=none / filler=0 / ip_ratio=1.40 / aq=1:1.00
Дата кодирования : UTC 2014-01-18 20:53:16
Дата пометки : UTC 2014-01-18 20:53:16
Цветовой диапазон : Limited
Основные цвета : BT.601 NTSC
Характеристики трансфера : BT.601
Коэффициенты матрицы : BT.601
Аудио
Идентификатор : 2
Формат : AAC
Формат/Информация : Advanced Audio Codec
Профиль формата : LC
Идентификатор кодека : 40
Продолжительность : 6 м. 41 с.
Вид битрейта : Переменный
Битрейт : 112 Кбит/сек
Каналы : 2 канала
Расположение каналов : Front: L R
Частота : 48,0 КГц
Частота кадров : 46,875 кадров/сек (1024 spf)
Метод сжатия : С потерями
Размер потока : 5,36 Мбайт (13%)
Дата кодирования : UTC 2014-01-18 20:53:16
Дата пометки : UTC 2014-01-18 20:53:16
Download / Скачать

Хотите скачать бесплатно? Зарегистрируйтесь на сайте (ссылка на регистрацию). Pirat.ca - самый быстрый торрент трекер в рунете!

Как скачивать  ·   Что такое торрент  ·   Рейтинг и ограничения

olipov

Легенда

Пост 17-Июл-2016 18:52 (спустя 1 день 17 часов)

[Q] 

Спасибо!!!
[Профиль]  [ЛС] 
Показать сообщения:    
Ответить на тему

Текущее время: Сегодня 19:09

Часовой пояс: GMT + 4



Вы не можете начинать темы
Вы не можете отвечать на сообщения
Вы не можете редактировать свои сообщения
Вы не можете удалять свои сообщения
Вы не можете голосовать в опросах
Вы не можете прикреплять файлы к сообщениям
Вы не можете скачивать файлы

▼ Вниз