Уважаемый Гость!
Вы можете поддержать проект и зарегистрироваться у наших партнеров - онлайн-стратегия MyLands. При регистрации в игре Вы получите код, который сможете активировать после регистрации на pirat.ca и получить 1000 дублонов.

Ваш код:
43bbd85404e6c8c171cb82d2f9bdadd0a4c4a89e
 
     

КВН-2016. Высшая лига / 1.2 финала. Игра 1 (2016.11.06) / Сезон: 2016 / Серии: 8 (Александр Масляков ст.) [2016 г., Юмор, SATRip] [+ Original (Rus)]

Ответить на тему
 
Автор
Сообщение

Пост 07-Ноя-2016 01:02

[Q] 

somik

-КВН-2016. Высшая лига / 1.2 финала. Игра 1 (2016.11.06)-- Производство: Россия, Телекомпания: Первый канал
Жанр: Юмор
Год выпуска: 2016 г.
Продолжительность: 01:47:04
Российская премьера: 6 ноября 2016
Перевод: Не требуется
Оригинальный аудиопоток: русский
Режиссер: Александр Масляков ст.-В ролях: Жюри: Константин Лавроненко, Валдис Пельш, Константин Эрнст, Михаил Галустян, Юлий Гусман.-Описание: Команды:
«Проигрыватель» ТГУ им. Г.Р. Державина, Тамбов
«Спарта», Астана
Сборная города Мурманска
«Чистые пруды», РЭУ им. Г.В. Плеханова, Москва-
Качество видео: SATRip
Контейнер: AVI
Видео кодек: XviD
Аудио кодек: AC3
Видео: 704x448 (1.57:1), 25 fps, XviD build 50 ~1798 kbps avg, 0.23 bit/pixel
Аудио: 48 kHz, AC3 Dolby Digital, 2/0 (L,R) ch, ~192 kbps
Cубтитры: отсутствуют
Общее
Полное имя : C:\герои 7\КВН-2016. Высшая лига. 1.2 финала. Игра 1 (2016.11.06)\КВН-2016. Высшая лига. 1.2 финала. Игра 1 (2016.11.06).[pirat.ca].avi
Формат : AVI
Формат/Информация : Audio Video Interleave
Размер файла : 1,50 Гбайт
Продолжительность : 1 ч. 47 м.
Общий поток : 2001 Кбит/сек
Программа кодирования : VirtualDubMod 1.5.10.3 | www.virtualdub-fr.org || (build 2550/release)
Библиотека кодирования : VirtualDub build 29808/release
Видео
Идентификатор : 0
Формат : MPEG-4 Visual
Профиль формата : Advanced [email protected]
Параметр BVOP формата : 2
Параметр QPel формата : Нет
Параметр GMC формата : Без точки перехода
Параметр матрицы формата : Default (H.263)
Идентификатор кодека : XVID
Идентификатор кодека/Подсказка : XviD
Продолжительность : 1 ч. 47 м.
Битрейт : 1799 Кбит/сек
Ширина : 704 пикселя
Высота : 448 пикселей
Соотношение сторон : 16:10
Частота кадров : 25,000 кадров/сек
Цветовое пространство : YUV
Субдискретизация насыщенности : 4:2:0
Битовая глубина : 8 бит
Тип развёртки : Прогрессивная
Метод сжатия : С потерями
Бит/(Пиксели*Кадры) : 0.228
Размер потока : 1,35 Гбайт (90%)
Библиотека кодирования : XviD 1.2.1 (UTC 2008-12-04)
Аудио
Идентификатор : 1
Формат : AC-3
Формат/Информация : Audio Coding 3
Расширение режима : CM (complete main)
Параметр Endianness формата : Big
Идентификатор кодека : 2000
Продолжительность : 1 ч. 47 м.
Вид битрейта : Постоянный
Битрейт : 192 Кбит/сек
Каналы : 2 канала
Расположение каналов : Front: L R
Частота : 48,0 КГц
Частота кадров : 31,250 кадров/сек (1536 spf)
Метод сжатия : С потерями
Размер потока : 147 Мбайт (10%)
Выравнивание : Разделение по промежуткам
Продолжительность промежутка : 40 мс. (1,00 видеокадр)
Время предзагрузки промежутка : 500 мс.
Download / Скачать

Хотите скачать бесплатно? Зарегистрируйтесь на сайте (ссылка на регистрацию). Pirat.ca - самый быстрый торрент трекер в рунете!

Как скачивать  ·   Что такое торрент  ·   Рейтинг и ограничения

Дядя Витя

58781

Пост 07-Ноя-2016 15:55 (спустя 14 часов)

[Q] 

Вот это тема, спасибо somik, не смотрел этот выпуск. Качну)
Раздающему респект!

_________________
?
[Профиль]  [ЛС] 

Пост 12-Ноя-2016 18:53 (спустя 5 дней)

Топик был перенесен из форума Развлекательные передачи, шоу, юмор (Трюм) в форум КВН
erchine
 

olmed

Гроза морей

Пост 22-Фев-2017 15:22 (спустя 3 месяца 14 дней)

[Q] 

Спасибо!!!
[Профиль]  [ЛС] 
Показать сообщения:    
Ответить на тему

Текущее время: Сегодня 16:54

Часовой пояс: GMT + 4



Вы не можете начинать темы
Вы не можете отвечать на сообщения
Вы не можете редактировать свои сообщения
Вы не можете удалять свои сообщения
Вы не можете голосовать в опросах
Вы не можете прикреплять файлы к сообщениям
Вы не можете скачивать файлы

▼ Вниз