ML
     
  Уважаемый Гость!
Вы можете поддержать проект и зарегистрироваться у наших партнеров - онлайн-стратегия MyLands. При регистрации в игре Вы получите код, который сможете активировать после регистрации на pirat.ca и получить 1000 дублонов.

Ваш код:
d3de48136fb9f4746ff774eacda5a0edf9d4c3af
 
     

Отряд самоубийц / Suicide Squad (Дэвид Эйр / David Ayer) [2016 г., фантастика, фэнтези, боевик, приключения, WEB-DLRip] Dub [iTunes]

Ответить на тему
 
Автор
Сообщение

Пост 15-Ноя-2016 23:08

[Q] 

aleksey99

--Отряд самоубийц / Suicide Squad--«Justice has a bad side»-- Производство: США / DC Comics, Warner Bros. Pictures
Год выпуска: 2016 г.
Жанр: фантастика, фэнтези, боевик, приключения
Продолжительность: 02:02:50--Мировая премьера: 1 августа 2016
Российская премьера: 4 августа 2016, «Каро-Премьер»--Перевод: Профессиональный (полное дублирование) [iTunes]--Режиссер: Дэвид Эйр / David Ayer--В ролях: Марго Робби, Уилл Смит, Джаред Лето, Джай Кортни, Кара Делевинь, Джей Эрнандес, Юэль Киннаман, Виола Дэвис--Описание: Правительство решает дать команде суперзлодеев шанс на искупление. Подвох в том, что их отправляют на миссию, где они, вероятнее всего, погибнут.-- --Качество видео: WEB-DLRip
Контейнер: AVI
Видео кодек: XviD
Аудио кодек: AC3
Видео: 720x304 (2.37:1), 23.976 fps, XviD build 50 ~1997 kbps avg, 0.38 bit/pixel
Аудио: 48 kHz, AC3 Dolby Digital, 3/2 (L,C,R,l,r) + LFE ch, ~384 kbps
Cубтитры: отсутствуют.
Общее
Полное имя : H:\Torrent2\SamoUbiysTvenniy.OtRyad.2O16.D.WEB-DLRip.21OOMB.avi
Формат : AVI
Формат/Информация : Audio Video Interleave
Профиль формата : OpenDML
Размер файла : 2,05 Гбайт
Продолжительность : 2 ч. 2 м.
Общий поток : 2393 Кбит/сек
Программа кодирования : VirtualDubMod 1.5.10.2 (build 2540/release)
Библиотека кодирования : VirtualDubMod build 2540/release
Видео
Идентификатор : 0
Формат : MPEG-4 Visual
Профиль формата : Advanced [email protected]
Параметр BVOP формата : 2
Параметр QPel формата : Нет
Параметр GMC формата : Без точки перехода
Параметр матрицы формата : Выборочная
Идентификатор кодека : XVID
Идентификатор кодека/Подсказка : XviD
Продолжительность : 2 ч. 2 м.
Битрейт : 1997 Кбит/сек
Ширина : 720 пикселей
Высота : 304 пикселя
Соотношение сторон : 2,35:1
Частота кадров : 23,976 (24000/1001) кадра/сек
Цветовое пространство : YUV
Субдискретизация насыщенности : 4:2:0
Битовая глубина : 8 бит
Тип развёртки : Прогрессивная
Метод сжатия : С потерями
Бит/(Пиксели*Кадры) : 0.381
Размер потока : 1,71 Гбайт (83%)
Библиотека кодирования : XviD 1.2.1 (UTC 2008-12-04)
Аудио
Идентификатор : 1
Формат : AC-3
Формат/Информация : Audio Coding 3
Расширение режима : CM (complete main)
Параметр Endianness формата : Big
Идентификатор кодека : 2000
Продолжительность : 2 ч. 2 м.
Вид битрейта : Постоянный
Битрейт : 384 Кбит/сек
Каналы : 6 каналов
Расположение каналов : Front: L C R, Side: L R, LFE
Частота : 48,0 КГц
Частота кадров : 31,250 кадров/сек (1536 spf)
Метод сжатия : С потерями
Размер потока : 337 Мбайт (16%)
Выравнивание : Разделение по промежуткам
Продолжительность промежутка : 42 мс. (1,00 видеокадр)
Время предзагрузки промежутка : 500 мс.
Трейлер
Download / Скачать

Хотите скачать бесплатно? Зарегистрируйтесь на сайте (ссылка на регистрацию). Pirat.ca - самый быстрый торрент трекер в рунете!

Как скачивать  ·   Что такое торрент  ·   Рейтинг и ограничения

aleksey99 ®

288872

Пост 16-Ноя-2016 07:28 (спустя 8 часов)

[Q] 

Замена на звук [iTunes]

_________________

[Профиль]  [ЛС] 

kinstintin

Гроза морей

Пост 16-Ноя-2016 10:19 (спустя 2 часа 51 минута)

[Q] 

хотя отзывы о фильме разнообразные, но заберу посмотреть
[Профиль]  [ЛС] 

valdis_2007

Лоцман

Пост 17-Ноя-2016 18:10 (спустя 1 день 7 часов)

[Q] 

фильм отличный,ржачный
[Профиль]  [ЛС] 

JonSneG

Пост 20-Ноя-2016 09:57 (спустя 2 дня 15 часов)

[Q] 

Спасибо! забрал. Лови бочку

_________________
[Профиль]  [ЛС] 

fishman

Флибустьер

Пост 20-Ноя-2016 17:52 (спустя 7 часов)

[Q] 

Спасибо!!! rum

_________________
|___|___|___|___|___|___|___|__|__
__|__|__|_Биться головой_|___|___|
|___|___|___|__сюда!!___|___|__|__
__|___|___|___|___|___|___|__|__
[Профиль]  [ЛС] 

OLEG_PS2009

Флибустьер

Пост 21-Ноя-2016 12:10 (спустя 18 часов)

[Q] 

Фильм неплохой, но концовка непонятная, скорее всего будет продолжение в виде сериала))))
[Профиль]  [ЛС] 

BilG

Морской Волк

Пост 24-Ноя-2016 21:44 (спустя 3 дня)

[Q] 

Хорошой фильм! Пиратка рулит!
[Профиль]  [ЛС] 

Незнайка

Флибустьер

Пост 24-Ноя-2016 21:48 (спустя 3 минуты)

[Q] 

Спасибо за труды
Супер!
[Профиль]  [ЛС] 

romall

Лоцман

8

Пост 03-Дек-2016 01:29 (спустя 8 дней)

[Q] 

спец эффекты супер, сюжет говно, бред сивой коблы. как в прочем и остальные фильмы David Ayer-а. Уил Смита жалко, надож было так вляпаться в это.
сами понимаете без толкового сценария, никакие украшалки фильм не сделают.
просмотрел кое как до середины, но когда супер злодеи зашли в кабак на пару стопок и давай скулить за жизнь плохую... дальше на быстрой перемотке бой с супер братом 10 кадров посмотрел и всё, тошнотворные чувства возникли, блевать сильно захотелось, смотреть этот говнофильм, нет.
[Профиль]  [ЛС] 

bull271174

Флибустьер

Пост 18-Дек-2016 10:37 (спустя 15 дней)

[Q] 

Хороший фильм. Посмотрел с удовольствием.
[Профиль]  [ЛС] 

Пост 19-Дек-2016 09:27 (спустя 22 часа)

Топик был перенесен из форума Новинки (HD|DVD|BD| TV|SAT|PDTV| - Rips) в форум Фильмы 2010 - 2016 г.г.
aleksey99
 

RAHAAON

Шкипер

Пост 08-Янв-2017 15:41 (спустя 21 день)

[Q] 

Перевод для диси фильмов почему то кошмарноватый...
[Профиль]  [ЛС] 
Показать сообщения:    
Ответить на тему

Текущее время: Сегодня 15:14

Часовой пояс: GMT + 4



Вы не можете начинать темы
Вы не можете отвечать на сообщения
Вы не можете редактировать свои сообщения
Вы не можете удалять свои сообщения
Вы не можете голосовать в опросах
Вы не можете прикреплять файлы к сообщениям
Вы не можете скачивать файлы

▼ Вниз