Уважаемый Гость!
Вы можете поддержать проект и зарегистрироваться у наших партнеров - онлайн-стратегия MyLands. При регистрации в игре Вы получите код, который сможете активировать после регистрации на pirat.ca и получить 1000 дублонов.

Ваш код:
269c33af571d9140442bf2c089ea007adc65586e
 
     

Бандиты / Bandits (Барри Левинсон / Barry Levinson) [2001, США, Комедия, Криминал, Мелодрама, BDRip, 720р] MVO (Карусель- 1,2, Видеосервис, Неизвестный) + AVO (Гаврилов, Живов, Визгунов) + original eng + sub rus, eng

Ответить на тему
 
Автор
Сообщение

Пост 25-Ноя-2016 00:26

[Q] 

gross1978

Бандиты / Bandits
Страна: США
Жанр: Комедия, Криминал, Мелодрама
Год выпуска: 2001
Продолжительность: 02:03:01
Перевод 1: Профессиональный (многоголосый, закадровый) Карусель-1,2, Видеосервис, Неизвестный
Перевод 2: Авторский (одноголосый закадровый) Гаврилов, Живов, Визгунов
Оригинальная аудиодорожка: английский
Cубтитры: русские, английские
Режиссер: Барри Левинсон / Barry Levinson
В ролях: Брюс Уиллис / Bruce Willis, Билли Боб Торнтон / Billy Bob Thornton, Кейт Бланшетт / Cate Blanchett, Трой Гэрити / Troy Garity, Брайан Ф. О'Бирн / Brian F. O'Byrne, Стэйси Трэвис / Stacey Travis, Бобби Слэйтон / Bobby Slayton, Дженьюэри Джонс / January Jones, Азура Скай / Azura Skye, Пегги Майли / Peggy Miley, Уильям Конверс-Робертс / William Converse-Roberts, Ричард Риле / Richard Riehle, Миколь Мёркюрио / Micole Mercurio, Скотт Беркхолдер / Scott Burkholder, Энтони Берч / Anthony Burch
Описание: Встречайте Джо Блейка и Терри Коллинза — самых удачливых грабителей банков в истории Америки! Неотразимый мачо Джо и фантастический ипохондрик Терри, вечно жалующийся на воображаемые недуги, без единого выстрела, на одном великом своем обаянии и очаровательном нахальстве взяли больше банков, чем кто-либо.
Казалось, удача никогда не оставит этих вежливых и остроумных налетчиков, ставших чуть ли не национальными героями. Но вот волею судеб в компанию героев попадает захотевшая вкусить приключений бедовая домохозяйка Кейт Уилер, в которую они оба немедленно влюбляются — и все в жизни парней идет кувырком!


Качество видео: BDRip, 720р
Формат видео: MKV
Видео: AVC MPEG4 Video (H264) 1280x544, 23.976fps, 4 620 Kbps, 0.277 bt/px
Аудио#1: Dolby AC3 48000Hz 6ch - Карусель #1
Аудио#2: Dolby AC3 48000Hz 6ch - Карусель #2
Аудио#3: Dolby AC3 48000Hz 6ch - Видеосервис
Аудио#4: Dolby AC3 48000Hz 6ch - Неизвестный
Аудио#5: Dolby AC3 48000Hz 6ch - Гаврилов
Аудио#6: Dolby AC3 48000Hz 6ch - Живов
Аудио#7: Dolby AC3 48000Hz stereo - Визгунов
Аудио#8: Dolby AC3 48000Hz 6ch - original
Subtitle: UTF-8 [S: [Russian, SDH [English]]
Формат субтитров: softsub (SRT)
Автор рипа:
За оформление спасибо Антону!
x264 [info]: frame I:1381 Avg QP:15.08 size:110848
x264 [info]: frame P:39267 Avg QP:16.00 size: 49216
x264 [info]: frame B:136312 Avg QP:18.40 size: 17026
x264 [info]: consecutive B-frames: 2.4% 3.5% 9.2% 13.7% 22.3% 41.0% 5.6% 1.0% 0.9% 0.5%
x264 [info]: mb I I16..4: 6.7% 82.2% 11.1%
x264 [info]: mb P I16..4: 0.5% 24.3% 1.1% P16..4: 23.4% 32.5% 15.1% 2.5% 0.1% skip: 0.4%
x264 [info]: mb B I16..4: 0.0% 2.5% 0.1% B16..8: 35.7% 28.5% 6.3% direct: 6.3% skip:20.6% L0:41.1% L1:42.1% BI:16.8%
x264 [info]: 8x8 transform intra:93.3% inter:50.3%
x264 [info]: coded y,uvDC,uvAC intra: 98.7% 80.2% 58.4% inter: 35.1% 17.7% 2.1%
x264 [info]: i16 v,h,dc,p: 6% 11% 14% 69%
x264 [info]: i8 v,h,dc,ddl,ddr,vr,hd,vl,hu: 8% 8% 17% 10% 12% 11% 11% 11% 12%
x264 [info]: i4 v,h,dc,ddl,ddr,vr,hd,vl,hu: 9% 12% 2% 9% 17% 15% 14% 11% 11%
x264 [info]: i8c dc,h,v,p: 36% 32% 18% 14%
x264 [info]: Weighted P-Frames: Y:15.0% UV:10.8%
x264 [info]: ref P L0: 41.7% 9.1% 19.0% 7.0% 6.4% 4.2% 4.2% 2.1% 2.2% 1.7% 1.9% 0.3% 0.0%
x264 [info]: ref B L0: 74.9% 10.2% 4.8% 2.9% 2.0% 1.8% 1.4% 1.0% 0.6% 0.3%
x264 [info]: ref B L1: 94.7% 5.3%
x264 [info]: kb/s:4776.16
encoded 176960 frames, 3.29 fps, 4776.16 kb/s, duration 14:56:01.17
Video
ID : 1
Format : AVC
Format/Info : Advanced Video Codec
Format profile : [email protected]
Format settings, CABAC : Yes
Format settings, ReFrames : 11 frames
Codec ID : V_MPEG4/ISO/AVC
Duration : 2h 3mn
Bit rate : 4 620 Kbps
Width : 1 280 pixels
Height : 544 pixels
Display aspect ratio : 2.35:1
Frame rate mode : Constant
Frame rate : 23.976 fps
Color space : YUV
Chroma subsampling : 4:2:0
Bit depth : 8 bits
Scan type : Progressive
Bits/(Pixel*Frame) : 0.277
Stream size : 3.97 GiB (57%)
Writing library : x264 core 148 r2638kMod 7599210
Encoding settings : cabac=1 / ref=11 / deblock=1:-3:-3 / analyse=0x3:0x133 / me=umh / subme=11 / psy=1 / fade_compensate=0.00 / psy_rd=1.00:0.05 / mixed_ref=1 / me_range=32 / chroma_me=1 / trellis=2 / 8x8dct=1 / cqm=0 / deadzone=21,11 / fast_pskip=0 / chroma_qp_offset=-3 / threads=9 / lookahead_threads=2 / sliced_threads=0 / nr=0 / decimate=1 / interlaced=0 / bluray_compat=0 / constrained_intra=0 / fgo=0 / bframes=9 / b_pyramid=2 / b_adapt=2 / b_bias=0 / direct=1 / weightb=1 / open_gop=0 / weightp=2 / keyint=250 / keyint_min=23 / scenecut=40 / intra_refresh=0 / rc=crf / mbtree=0 / crf=17.0000 / qcomp=0.60 / qpmin=0 / qpmax=69 / qpstep=4 / ip_ratio=1.40 / pb_ratio=1.30 / aq=1:1.00
Language : English
Default : Yes
Forced : No
Audio #1
ID : 2
Format : AC-3
Format/Info : Audio Coding 3
Mode extension : CM (complete main)
Format settings, Endianness : Big
Codec ID : A_AC3
Duration : 2h 3mn
Bit rate mode : Constant
Bit rate : 448 Kbps
Channel(s) : 6 channels
Channel positions : Front: L C R, Side: L R, LFE
Sampling rate : 48.0 KHz
Bit depth : 16 bits
Compression mode : Lossy
Stream size : 394 MiB (6%)
Title : pm (Karusel #1)
Language : Russian
Default : Yes
Forced : Yes
Audio #2
ID : 3
Format : AC-3
Format/Info : Audio Coding 3
Mode extension : CM (complete main)
Format settings, Endianness : Big
Codec ID : A_AC3
Duration : 2h 3mn
Bit rate mode : Constant
Bit rate : 448 Kbps
Channel(s) : 6 channels
Channel positions : Front: L C R, Side: L R, LFE
Sampling rate : 48.0 KHz
Bit depth : 16 bits
Compression mode : Lossy
Stream size : 394 MiB (6%)
Title : pm (Karusel #2)
Language : Russian
Default : No
Forced : No
Audio #3
ID : 4
Format : AC-3
Format/Info : Audio Coding 3
Mode extension : CM (complete main)
Format settings, Endianness : Big
Codec ID : A_AC3
Duration : 2h 3mn
Bit rate mode : Constant
Bit rate : 448 Kbps
Channel(s) : 6 channels
Channel positions : Front: L C R, Side: L R, LFE
Sampling rate : 48.0 KHz
Bit depth : 16 bits
Compression mode : Lossy
Stream size : 394 MiB (6%)
Title : pm (Videoservis)
Language : Russian
Default : No
Forced : No
Audio #4
ID : 5
Format : AC-3
Format/Info : Audio Coding 3
Mode extension : CM (complete main)
Format settings, Endianness : Big
Codec ID : A_AC3
Duration : 2h 3mn
Bit rate mode : Constant
Bit rate : 384 Kbps
Channel(s) : 6 channels
Channel positions : Front: L C R, Side: L R, LFE
Sampling rate : 48.0 KHz
Bit depth : 16 bits
Compression mode : Lossy
Stream size : 338 MiB (5%)
Title : pm (Unknown)
Language : Russian
Default : No
Forced : No
Audio #5
ID : 6
Format : AC-3
Format/Info : Audio Coding 3
Mode extension : CM (complete main)
Format settings, Endianness : Big
Codec ID : A_AC3
Duration : 2h 3mn
Bit rate mode : Constant
Bit rate : 448 Kbps
Channel(s) : 6 channels
Channel positions : Front: L C R, Side: L R, LFE
Sampling rate : 48.0 KHz
Bit depth : 16 bits
Compression mode : Lossy
Stream size : 394 MiB (6%)
Title : A1 (Gavrilov)
Language : Russian
Default : No
Forced : No
Audio #6
ID : 7
Format : AC-3
Format/Info : Audio Coding 3
Mode extension : CM (complete main)
Format settings, Endianness : Big
Codec ID : A_AC3
Duration : 2h 3mn
Bit rate mode : Constant
Bit rate : 448 Kbps
Channel(s) : 6 channels
Channel positions : Front: L C R, Side: L R, LFE
Sampling rate : 48.0 KHz
Bit depth : 16 bits
Compression mode : Lossy
Stream size : 394 MiB (6%)
Title : A1 (Jivov)
Language : Russian
Default : No
Forced : No
Audio #7
ID : 8
Format : AC-3
Format/Info : Audio Coding 3
Mode extension : CM (complete main)
Format settings, Endianness : Big
Codec ID : A_AC3
Duration : 2h 3mn
Bit rate mode : Constant
Bit rate : 192 Kbps
Channel(s) : 2 channels
Channel positions : Front: L R
Sampling rate : 48.0 KHz
Bit depth : 16 bits
Compression mode : Lossy
Stream size : 169 MiB (2%)
Title : A1 (Vizgunov)
Language : Russian
Default : No
Forced : No
Audio #8
ID : 9
Format : AC-3
Format/Info : Audio Coding 3
Mode extension : CM (complete main)
Format settings, Endianness : Big
Codec ID : A_AC3
Duration : 2h 3mn
Bit rate mode : Constant
Bit rate : 448 Kbps
Channel(s) : 6 channels
Channel positions : Front: L C R, Side: L R, LFE
Sampling rate : 48.0 KHz
Bit depth : 16 bits
Compression mode : Lossy
Stream size : 394 MiB (6%)
Title : original
Language : English
Default : No
Forced : No
Text #1
ID : 10
Format : UTF-8
Codec ID : S_TEXT/UTF8
Codec ID/Info : UTF-8 Plain Text
Language : Russian
Default : No
Forced : No
Text #2
ID : 11
Format : UTF-8
Codec ID : S_TEXT/UTF8
Codec ID/Info : UTF-8 Plain Text
Title : SDH
Language : English
Default : No
Forced : No
Menu
00:00:00.000 : en:Chapter 1
00:05:54.145 : en:Chapter 2
00:08:56.703 : en:Chapter 3
00:12:37.507 : en:Chapter 4
00:18:36.866 : en:Chapter 5
00:22:57.666 : en:Chapter 6
00:31:39.147 : en:Chapter 7
00:36:08.875 : en:Chapter 8
00:41:37.203 : en:Chapter 9
00:47:21.338 : en:Chapter 10
00:56:50.866 : en:Chapter 11
01:02:03.553 : en:Chapter 12
01:09:32.585 : en:Chapter 13
01:19:43.404 : en:Chapter 14
01:23:55.030 : en:Chapter 15
01:30:39.142 : en:Chapter 16
01:39:09.777 : en:Chapter 17
01:44:31.140 : en:Chapter 18
01:47:35.991 : en:Chapter 19
01:56:46.541 : en:Chapter 20
02:01:30.022 : en:Chapter 21
- -
Download / Скачать

Хотите скачать бесплатно? Зарегистрируйтесь на сайте (ссылка на регистрацию). Pirat.ca - самый быстрый торрент трекер в рунете!

Как скачивать  ·   Что такое торрент  ·   Рейтинг и ограничения

дрюпа

Корсар

160

Пост 25-Ноя-2016 19:39 (спустя 19 часов)

[Q] 

раздавать то будем,стоит на 91.1%?
Kgross1978 писал(а):

Конечно будем..... но потом:)
[Профиль]  [ЛС] 

sasarnd

Шкипер

Пост 27-Ноя-2016 04:04 (спустя 1 день 8 часов)

[Q] 

Интересный???
[Профиль]  [ЛС] 

gross1978 ®

7580

Пост 27-Ноя-2016 21:04 (спустя 16 часов)

[Q] 

775294Интересный???
да!

_________________
Употребляйте правильно слова, и вы избавите мир от половины недоразумений (Р.Декарт).
Если у Вас есть переводы в авторском, которых нет в моих раздачах и желание ими поделиться, пишите, добавим:)
[Профиль]  [ЛС] 
Показать сообщения:    
Ответить на тему

Текущее время: Сегодня 08:43

Часовой пояс: GMT + 4



Вы не можете начинать темы
Вы не можете отвечать на сообщения
Вы не можете редактировать свои сообщения
Вы не можете удалять свои сообщения
Вы не можете голосовать в опросах
Вы не можете прикреплять файлы к сообщениям
Вы не можете скачивать файлы

▼ Вниз