Уважаемый Гость!
Вы можете поддержать проект и зарегистрироваться у наших партнеров - онлайн-стратегия MyLands. При регистрации в игре Вы получите код, который сможете активировать после регистрации на pirat.ca и получить 1000 дублонов.

Ваш код:
cbfc972db866f9f3df6a6fea4c2549cc4e2f5835
 
     

Граница / Frontière(s) (Ксавье Жанс / Xavier Gens) [2007 г., ужасы, триллер, BDRip, 720p] Dub + AVO (Иванов)+ original (Fra) + Sub (Rus, Eng)

Ответить на тему
 
Автор
Сообщение

Пост 25-Ноя-2016 20:12

[Q] 

gross1978

-Граница / Frontière(s)-- Производство: Франция, Швейцария, BR Films, Cartel Productions, Chemin Vert, Europa Corp., Pacific Films, ...
Год выпуска: 2007 г.
Жанр: ужасы, триллер
Продолжительность: 01:48:10-Перевод 1: Профессиональный (полное дублирование) Лицензия
Перевод 2: Авторский (одноголосый закадровый) Иванов
Оригинальный аудиопоток: Французский-Режиссер: Ксавье Жанс / Xavier Gens-В ролях: Карина Теста (Yasmine), Самюэль Ле Бьян (Goetz), Эстель Лефебюр (Gilberte), Орельен Вик (Alex), Дэвид Саракино (Tom), Чемс Дамани (Farid), Мод Форже (Eva), Амели Доре (Klaudia), Розин Фавей (La mere), Адель Беншериф (Sami), Жоэль Лефрансуа (Hans), Патрик Лигарде (Karl)-Описание: Преступная банда после ряда дерзких ограблений скрывается от правосудия в близлежащих лесах. Скитаясь в поисках временно прибежища, они выходят к мотелю. Хозяева спасительного пристанища не отличаются гостеприимством. Но даже самые страшные фантазии не в состоянии сравниться с ожидающей несчастных реальностью. Совсем скоро неудавшиеся бандиты поймут, что стали пленниками каннибалов, которые уготовили своим постояльцам ужасную смерть…-
Качество видео: BDRip, 720р
Контейнер: MKV
Видео кодек: х.264
Аудио кодек: AC3
Видео: MPEG4 Video (H264) 1280x544, 23.976fps, 4 999 Kbps, 0.299 bt/px
Аудио #1: 48 kHz, AC3, 3/2 (L,C,R,l,r) + LFE ch, ~448.00 kbps avg – Дубляж
Аудио #2: 48 kHz, AC3, 3/2 (L,C,R,l,r) + LFE ch, ~448.00 kbps avg – Иванов
Аудио #3: 48 kHz, AC3, 3/2 (L,C,R,l,r) + LFE ch, ~448.00 kbps avg – оригинал
Cубтитры: русские, английские
Формат субтитров: softsub (SRT)
Доп. информация о субтитрах: включаемые
Автор рипа:
За перевод Иванова огромное спасибо ylnian
За сборку дороги спасибо rammzez
Фильм был снят за 36 дней.
На съемочной площадке было пролито около 400 литров фальшивой крови.
Ради роли Гётца Сэмюэл Ле Бьян накачал дополнительных 4 килограмма мускулов, а также согласился обрить голову и отпустить усы.
Небольшую роль сыграл Янник Даан. Это имя знакомо, прежде всего, французским киноманам — Даан популярный кинокритик, который просто помешан на хоррорах. Он работает в журналах Позитив и Безумное кино, а также на канале CinéCinéma.
General
Unique ID : 208057652115318784954651600846652584539 (0x9C86723C92D6206F91F0985B52BA325B)
Complete name : G:\фильмы HD\! новое\Граница (Frontier(s), 2007, BDRip, 720р) dub-Ivanov-eng.mkv
Format : Matroska
Format version : Version 2
File size : 4.89 GiB
Duration : 1h 48mn
Overall bit rate : 6 471 Kbps
Movie name : rip by Gross
Encoded date : UTC 2016-03-19 14:20:43
Writing application : mkvmerge v4.7.0 ('Just Like You Imagined') сборка от Apr 21 2011 01:13:14
Writing library : libebml v1.2.0 + libmatroska v1.1.0
Video
ID : 1
Format : AVC
Format/Info : Advanced Video Codec
Format profile : [email protected]
Format settings, CABAC : Yes
Format settings, ReFrames : 11 frames
Codec ID : V_MPEG4/ISO/AVC
Duration : 1h 48mn
Bit rate : 4 999 Kbps
Width : 1 280 pixels
Height : 544 pixels
Display aspect ratio : 2.35:1
Frame rate mode : Constant
Frame rate : 23.976 fps
Color space : YUV
Chroma subsampling : 4:2:0
Bit depth : 8 bits
Scan type : Progressive
Bits/(Pixel*Frame) : 0.299
Stream size : 3.78 GiB (77%)
Writing library : x264 core 148 r2638kMod 7599210
Encoding settings : cabac=1 / ref=11 / deblock=1:-3:-3 / analyse=0x3:0x133 / me=umh / subme=11 / psy=1 / fade_compensate=0.00 / psy_rd=1.00:0.07 / mixed_ref=1 / me_range=32 / chroma_me=1 / trellis=2 / 8x8dct=1 / cqm=0 / deadzone=21,11 / fast_pskip=0 / chroma_qp_offset=-3 / threads=9 / lookahead_threads=2 / sliced_threads=0 / nr=0 / decimate=1 / interlaced=0 / bluray_compat=0 / constrained_intra=0 / fgo=0 / bframes=9 / b_pyramid=2 / b_adapt=2 / b_bias=0 / direct=1 / weightb=1 / open_gop=0 / weightp=2 / keyint=250 / keyint_min=23 / scenecut=40 / intra_refresh=0 / rc=crf / mbtree=0 / crf=17.3000 / qcomp=0.60 / qpmin=0 / qpmax=69 / qpstep=4 / ip_ratio=1.40 / pb_ratio=1.30 / aq=1:1.00
Language : English
Default : Yes
Forced : No
Audio #1
ID : 2
Format : AC-3
Format/Info : Audio Coding 3
Mode extension : CM (complete main)
Format settings, Endianness : Big
Codec ID : A_AC3
Duration : 1h 48mn
Bit rate mode : Constant
Bit rate : 448 Kbps
Channel(s) : 6 channels
Channel positions : Front: L C R, Side: L R, LFE
Sampling rate : 48.0 KHz
Bit depth : 16 bits
Compression mode : Lossy
Stream size : 347 MiB (7%)
Title : dub (R5)
Language : Russian
Default : Yes
Forced : Yes
Audio #2
ID : 3
Format : AC-3
Format/Info : Audio Coding 3
Mode extension : CM (complete main)
Format settings, Endianness : Big
Codec ID : A_AC3
Duration : 1h 48mn
Bit rate mode : Constant
Bit rate : 448 Kbps
Channel(s) : 6 channels
Channel positions : Front: L C R, Side: L R, LFE
Sampling rate : 48.0 KHz
Bit depth : 16 bits
Compression mode : Lossy
Stream size : 347 MiB (7%)
Title : A1 (Ivanov)
Language : Russian
Default : No
Forced : No
Audio #3
ID : 4
Format : AC-3
Format/Info : Audio Coding 3
Mode extension : CM (complete main)
Format settings, Endianness : Big
Codec ID : A_AC3
Duration : 1h 48mn
Bit rate mode : Constant
Bit rate : 448 Kbps
Channel(s) : 6 channels
Channel positions : Front: L C R, Side: L R, LFE
Sampling rate : 48.0 KHz
Bit depth : 16 bits
Compression mode : Lossy
Stream size : 347 MiB (7%)
Title : original
Language : French
Default : No
Forced : No
Text #1
ID : 5
Format : UTF-8
Codec ID : S_TEXT/UTF8
Codec ID/Info : UTF-8 Plain Text
Language : Russian
Default : No
Forced : No
Text #2
ID : 6
Format : UTF-8
Codec ID : S_TEXT/UTF8
Codec ID/Info : UTF-8 Plain Text
Language : English
Default : No
Forced : No
Menu
00:00:00.000 : en:Chapter 01
00:04:15.713 : en:Chapter 02
00:11:46.455 : en:Chapter 03
00:17:03.522 : en:Chapter 04
00:24:01.940 : en:Chapter 05
00:33:31.009 : en:Chapter 06
00:41:18.476 : en:Chapter 07
00:46:37.836 : en:Chapter 08
00:53:35.253 : en:Chapter 09
00:58:31.591 : en:Chapter 10
01:05:40.269 : en:Chapter 11
01:10:28.474 : en:Chapter 12
01:16:28.083 : en:Chapter 13
01:24:30.482 : en:Chapter 14
01:34:44.804 : en:Chapter 15
01:42:03.659 : en:Chapter 16
- -
Download / Скачать

Хотите скачать бесплатно? Зарегистрируйтесь на сайте (ссылка на регистрацию). Pirat.ca - самый быстрый торрент трекер в рунете!

Как скачивать  ·   Что такое торрент  ·   Рейтинг и ограничения

Показать сообщения:    
Ответить на тему

Текущее время: Сегодня 08:01

Часовой пояс: GMT + 4



Вы не можете начинать темы
Вы не можете отвечать на сообщения
Вы не можете редактировать свои сообщения
Вы не можете удалять свои сообщения
Вы не можете голосовать в опросах
Вы не можете прикреплять файлы к сообщениям
Вы не можете скачивать файлы

▼ Вниз