Уважаемый Гость!
Вы можете поддержать проект и зарегистрироваться у наших партнеров - онлайн-стратегия MyLands. При регистрации в игре Вы получите код, который сможете активировать после регистрации на pirat.ca и получить 1000 дублонов.

Ваш код:
ed90efcf2ad4735c31dff44567b82e9136b702ef
 
     

Киллеры / Killers (Роберт Лукетич / Robert Luketic) [2010 г., Боевик, триллер, комедия, мелодрама, BDRip] Dub + AVO (Карповский) + Original (Eng) +Sub (Rus, Eng)

Ответить на тему
 
Автор
Сообщение

Пост 26-Ноя-2016 17:07

[Q] 

gross1978

-Киллеры / Killers- Производство: США / Lionsgate, Aversano Films, Katalyst Films
Год выпуска: 2010 г.
Жанр: Боевик, триллер, комедия, мелодрама
Продолжительность: 01:40:24
Перевод 1: Профессиональный (полное дублирование) R5
Перевод 2: Авторский (одноголосый закадровый) Карповский
Оригинальный аудиопоток: английский-Режиссер: Роберт Лукетич / Robert Luketic
В ролях: Эштон Катчер, Кэтрин Хайгл, Том Селлек, Кэтрин О’Хара, Кэтрин Уинник, Кевин Суссман, Лиза Энн Уолтер, Кэйси Уилсон, Роб Риггл, Мартин Мулл-Описание: Спенсер был безжалостным наемным убийцей, грозой мирового терроризма и перестал им быть, когда встретил Джен в лифте курортного отеля… Спустя три года они — обычная идеальная молодая пара, проживающая в американском пригороде. Но их безоблачному счастью приходит конец, когда за голову Спенсера объявляют награду в $20 млн, и все глубоко законспирированные профессионалы-киллеры начинают за ним охоту. Сумеют ли герои «угадать» убийц среди своих соседей, коллег, знакомых и друзей, чтобы уцелеть? Простит ли Джен мужа за «убийственную правду»? И кто «заказал» Спенсера?- -Качество видео: BDRip, 720р
Контейнер: MKV
Видео кодек: h.264
Аудио кодек: AC3
Автор рипа:
Видео: MPEG4 Video (H264) 1280x544, 23.976fps, ~3 814 Kbps, 0.228 bit/pixel
Аудио: 48 kHz, AC3 Dolby Digital, 3/2 (L,C,R,l,r) + LFE ch, ~448 kbps - дубляж
Аудио #2: 48 kHz, AC3 Dolby Digital, 3/2 (L,C,R,l,r) + LFE ch, ~448 kbps – Карповский
Аудио #3: 48 kHz, AC3 Dolby Digital, 3/2 (L,C,R,l,r) + LFE ch, ~448 kbps – оригинал
Cубтитры: Русские, английские
Навигация по главам: Сохранена (как на блюрей)
x264 [info]: frame I:1386 Avg QP:14.95 size:115307
x264 [info]: frame P:37164 Avg QP:16.11 size: 41135
x264 [info]: frame B:105878 Avg QP:19.22 size: 11901
x264 [info]: consecutive B-frames: 3.6% 8.1% 11.2% 22.2% 22.5% 28.2% 2.9% 0.7% 0.4% 0.1%
x264 [info]: mb I I16..4: 10.2% 75.4% 14.3%
x264 [info]: mb P I16..4: 0.7% 15.1% 1.3% P16..4: 26.9% 35.9% 15.2% 2.8% 0.2% skip: 1.8%
x264 [info]: mb B I16..4: 0.1% 1.1% 0.1% B16..8: 35.6% 26.2% 5.1% direct: 4.6% skip:27.3% L0:40.7% L1:44.7% BI:14.6%
x264 [info]: 8x8 transform intra:86.4% inter:53.0%
x264 [info]: coded y,uvDC,uvAC intra: 95.6% 87.0% 75.1% inter: 25.8% 17.5% 6.7%
x264 [info]: i16 v,h,dc,p: 12% 8% 13% 67%
x264 [info]: i8 v,h,dc,ddl,ddr,vr,hd,vl,hu: 9% 8% 13% 9% 12% 12% 12% 11% 12%
x264 [info]: i4 v,h,dc,ddl,ddr,vr,hd,vl,hu: 10% 9% 3% 9% 17% 16% 15% 11% 12%
x264 [info]: i8c dc,h,v,p: 44% 23% 16% 17%
x264 [info]: Weighted P-Frames: Y:10.0% UV:7.3%
x264 [info]: ref P L0: 46.7% 9.8% 17.4% 6.4% 5.6% 3.7% 3.5% 1.8% 1.8% 1.5% 1.6% 0.3% 0.0%
x264 [info]: ref B L0: 75.9% 10.5% 4.7% 2.7% 1.8% 1.6% 1.2% 0.8% 0.5% 0.3%
x264 [info]: ref B L1: 94.6% 5.4%
x264 [info]: kb/s:3915.
General
Unique ID : 252184393268393856265111417179157752243 (0xBDB8F28C19DFA8AFAB301B098016E9B3)
Complete name : G:\фильмы HD\! новое\Киллеры (Killers, 2010, BDRip, 720p) dub-Karpovsky-eng.mkv
Format : Matroska
Format version : Version 2
File size : 3.69 GiB
Duration : 1h 40mn
Overall bit rate : 5 263 Kbps
Movie name : rip by Gross
Encoded date : UTC 2016-04-30 15:29:13
Writing application : mkvmerge v4.7.0 ('Just Like You Imagined') сборка от Apr 21 2011 01:13:14
Writing library : libebml v1.2.0 + libmatroska v1.1.0
Video
ID : 1
Format : AVC
Format/Info : Advanced Video Codec
Format profile : [email protected]
Format settings, CABAC : Yes
Format settings, ReFrames : 11 frames
Codec ID : V_MPEG4/ISO/AVC
Duration : 1h 40mn
Bit rate : 3 814 Kbps
Width : 1 280 pixels
Height : 544 pixels
Display aspect ratio : 2.35:1
Frame rate mode : Constant
Frame rate : 23.976 fps
Color space : YUV
Chroma subsampling : 4:2:0
Bit depth : 8 bits
Scan type : Progressive
Bits/(Pixel*Frame) : 0.228
Stream size : 2.67 GiB (72%)
Writing library : x264 core 148 r2638kMod 7599210
Encoding settings : cabac=1 / ref=11 / deblock=1:-3:-3 / analyse=0x3:0x133 / me=umh / subme=11 / psy=1 / fade_compensate=0.00 / psy_rd=1.00:0.05 / mixed_ref=1 / me_range=32 / chroma_me=1 / trellis=2 / 8x8dct=1 / cqm=0 / deadzone=21,11 / fast_pskip=0 / chroma_qp_offset=-3 / threads=9 / lookahead_threads=2 / sliced_threads=0 / nr=0 / decimate=1 / interlaced=0 / bluray_compat=0 / constrained_intra=0 / fgo=0 / bframes=9 / b_pyramid=2 / b_adapt=2 / b_bias=0 / direct=1 / weightb=1 / open_gop=0 / weightp=2 / keyint=250 / keyint_min=23 / scenecut=40 / intra_refresh=0 / rc=crf / mbtree=0 / crf=17.0000 / qcomp=0.60 / qpmin=0 / qpmax=69 / qpstep=4 / ip_ratio=1.40 / pb_ratio=1.30 / aq=1:1.00
Language : English
Default : Yes
Forced : No
Audio #1
ID : 2
Format : AC-3
Format/Info : Audio Coding 3
Mode extension : CM (complete main)
Format settings, Endianness : Big
Codec ID : A_AC3
Duration : 1h 40mn
Bit rate mode : Constant
Bit rate : 448 Kbps
Channel(s) : 6 channels
Channel positions : Front: L C R, Side: L R, LFE
Sampling rate : 48.0 KHz
Bit depth : 16 bits
Compression mode : Lossy
Stream size : 322 MiB (9%)
Title : dub (R5)
Language : Russian
Default : Yes
Forced : Yes
Audio #2
ID : 3
Format : AC-3
Format/Info : Audio Coding 3
Mode extension : CM (complete main)
Format settings, Endianness : Big
Codec ID : A_AC3
Duration : 1h 40mn
Bit rate mode : Constant
Bit rate : 448 Kbps
Channel(s) : 6 channels
Channel positions : Front: L C R, Side: L R, LFE
Sampling rate : 48.0 KHz
Bit depth : 16 bits
Compression mode : Lossy
Stream size : 322 MiB (9%)
Title : A1 (Karpovsky)
Language : Russian
Default : No
Forced : No
Audio #3
ID : 4
Format : AC-3
Format/Info : Audio Coding 3
Mode extension : CM (complete main)
Format settings, Endianness : Big
Codec ID : A_AC3
Duration : 1h 40mn
Bit rate mode : Constant
Bit rate : 448 Kbps
Channel(s) : 6 channels
Channel positions : Front: L C R, Side: L R, LFE
Sampling rate : 48.0 KHz
Bit depth : 16 bits
Compression mode : Lossy
Stream size : 322 MiB (9%)
Title : original
Language : English
Default : No
Forced : No
Text #1
ID : 5
Format : UTF-8
Codec ID : S_TEXT/UTF8
Codec ID/Info : UTF-8 Plain Text
Language : Russian
Default : No
Forced : No
Text #2
ID : 6
Format : UTF-8
Codec ID : S_TEXT/UTF8
Codec ID/Info : UTF-8 Plain Text
Language : English
Default : No
Forced : No
Text #3
ID : 7
Format : UTF-8
Codec ID : S_TEXT/UTF8
Codec ID/Info : UTF-8 Plain Text
Title : SDH
Language : English
Default : No
Forced : No
Menu
00:00:00.000 : en:00:00:00.000
00:09:51.841 : en:00:09:51.841
00:15:18.334 : en:00:15:18.334
00:22:40.025 : en:00:22:40.025
00:28:52.397 : en:00:28:52.397
00:36:06.122 : en:00:36:06.122
00:44:51.146 : en:00:44:51.146
00:51:27.918 : en:00:51:27.918
00:55:06.219 : en:00:55:06.219
01:01:50.623 : en:01:01:50.623
01:05:07.278 : en:01:05:07.278
01:13:39.123 : en:01:13:39.123
01:17:37.110 : en:01:17:37.110
01:21:38.768 : en:01:21:38.768
01:28:40.023 : en:01:28:40.023
01:31:40.828 : en:01:31:40.828
- -
Download / Скачать

Хотите скачать бесплатно? Зарегистрируйтесь на сайте (ссылка на регистрацию). Pirat.ca - самый быстрый торрент трекер в рунете!

Как скачивать  ·   Что такое торрент  ·   Рейтинг и ограничения

Показать сообщения:    
Ответить на тему

Текущее время: Сегодня 16:02

Часовой пояс: GMT + 4



Вы не можете начинать темы
Вы не можете отвечать на сообщения
Вы не можете редактировать свои сообщения
Вы не можете удалять свои сообщения
Вы не можете голосовать в опросах
Вы не можете прикреплять файлы к сообщениям
Вы не можете скачивать файлы

▼ Вниз