ML
     
  Уважаемый Гость!
Вы можете поддержать проект и зарегистрироваться у наших партнеров - онлайн-стратегия MyLands. При регистрации в игре Вы получите код, который сможете активировать после регистрации на pirat.ca и получить 1000 дублонов.

Ваш код:
2ab820e1ebe71772b15671f7fa7cacfa77991617
 
     

КВН-2016. Высшая лига. 55 лет. Юбилейный выпуск (2016.11.27) / Сезон: Серии: (Александр Масляков) [2016 г., Юмор, SATRip]

Ответить на тему
 
Автор
Сообщение

Пост 27-Ноя-2016 20:59

[Q] 

C0y0te

-КВН-2016. Высшая лига. 55 лет. Юбилейный выпуск (2016.11.27)-- Производство: Первый канал
Жанр: Юмор
Год выпуска: 2016 г.
Продолжительность: 01:56:22
Ведущий: Александр Масляков-Команды:
«Пирамида», Владикавказ
Сборная РУДН
Дагестан («Махачкалинские бродяги» + сборная Дагестана)
«Максимум», Томск
«Новые армяне»
«Мегаполис», Москва
Сборная Пятигорска
«Уральские пельмени»
«Утомленные солнцем», Краснодарский край-Описание: Клуб Веселых и находчивых отмечает юбилей, 55 лет. Чтобы поздравить всех с этой почетной датой, на большую кремлевскую сцену выйдут самые известные команды, многие из участников этих коллективов уже давно стали настоящими звездами, но в очередной раз эти люди выйдут на сцену, чтобы делать то, что они так любят и отлично умеют, они будут шутить, смеяться и говорить, как они любят КВН.-Качество видео: SATRip
Контейнер: AVI
Видео кодек: XviD
Аудио кодек: AC3
Видео: 704x448, 1799 kb/s, 0.228 bit/pixel
Аудио: 48 kHz, 2/0 (L,R) ch, ~192 kbps
Cубтитры: отсутствуют
Общее
Формат : AVI
Формат/Информация : Audio Video Interleave
Размер файла : 1,62 Гбайт
Продолжительность : 1 ч. 56 м.
Общий поток : 1999 Кбит/сек
Программа кодирования : VirtualDubMod 1.5.10.3 | www.virtualdub-fr.org || (build 2550/release)
Библиотека кодирования : VirtualDub build 35491/release
Видео
Идентификатор : 0
Формат : MPEG-4 Visual
Профиль формата : Advanced [email protected]
Параметр BVOP формата : 2
Параметр QPel формата : Нет
Параметр GMC формата : Без точки перехода
Параметр матрицы формата : Default (H.263)
Идентификатор кодека : XVID
Идентификатор кодека/Подсказка : XviD
Продолжительность : 1 ч. 56 м.
Битрейт : 1797 Кбит/сек
Ширина : 704 пикселя
Высота : 448 пикселей
Соотношение сторон : 16:10
Частота кадров : 25,000 кадров/сек
Цветовое пространство : YUV
Субдискретизация насыщенности : 4:2:0
Битовая глубина : 8 бит
Тип развёртки : Прогрессивная
Метод сжатия : С потерями
Бит/(Пиксели*Кадры) : 0.228
Размер потока : 1,46 Гбайт (90%)
Библиотека кодирования : XviD 1.2.1 (UTC 2008-12-04)
Аудио
Идентификатор : 1
Формат : AC-3
Формат/Информация : Audio Coding 3
Расширение режима : CM (complete main)
Параметр Endianness формата : Big
Идентификатор кодека : 2000
Продолжительность : 1 ч. 56 м.
Вид битрейта : Постоянный
Битрейт : 192 Кбит/сек
Каналы : 2 канала
Расположение каналов : Front: L R
Частота : 48,0 КГц
Метод сжатия : С потерями
Размер потока : 160 Мбайт (10%)
Выравнивание : Разделение по промежуткам
Продолжительность промежутка : 40 мс. (1,00 видеокадр)
Время предзагрузки промежутка : 500 мс.
Download / Скачать

Хотите скачать бесплатно? Зарегистрируйтесь на сайте (ссылка на регистрацию). Pirat.ca - самый быстрый торрент трекер в рунете!

Как скачивать  ·   Что такое торрент  ·   Рейтинг и ограничения

MaXoR

Гроза морей

1497

Пост 28-Ноя-2016 09:24 (спустя 12 часов)

[Q] 

Бросил КВН смотреть в 2010 году. Шибко не следил, но видно, что шоу превратилось в инкубатор для КамедиКлаба. На ветеранов с удовольствием гляну.

_________________
Живы будем - не помрем!
[Профиль]  [ЛС] 

demboss

Морской Волк

20

Пост 05-Дек-2016 00:46 (спустя 6 дней)

[Q] 

Порадовал только Пятигорск, увы. Пельмени тупо отбыли время, Сочи вытянул только галустян пародией на кадырова, остальные не запомнились особо ничем :(
очень надеюсь на кубок мэра, должны быть камызяки, союз, пятигорскЪ :))
[Профиль]  [ЛС] 

Neogar

Корсар

Пост 15-Дек-2016 21:36 (спустя 10 дней)

[Q] 

Пятигорск рулит..

_________________
Нас reboot, а мы крепчаем...
[Профиль]  [ЛС] 

andrey-34rus

Корсар

Пост 29-Янв-2017 19:06 (спустя 1 месяц 13 дней)

[Q] 

КВН - классика, которая не стареет )
[Профиль]  [ЛС] 

olmed

Гроза морей

Пост 22-Фев-2017 15:20 (спустя 23 дня)

[Q] 

Автору респект!!!
[Профиль]  [ЛС] 
Показать сообщения:    
Ответить на тему

Текущее время: Сегодня 04:44

Часовой пояс: GMT + 4



Вы не можете начинать темы
Вы не можете отвечать на сообщения
Вы не можете редактировать свои сообщения
Вы не можете удалять свои сообщения
Вы не можете голосовать в опросах
Вы не можете прикреплять файлы к сообщениям
Вы не можете скачивать файлы

▼ Вниз