Уважаемый Гость!
Вы можете поддержать проект и зарегистрироваться у наших партнеров - онлайн-стратегия MyLands. При регистрации в игре Вы получите код, который сможете активировать после регистрации на pirat.ca и получить 1000 дублонов.

Ваш код:
d3bbd906dcd3cb9e17457607e92a6e485b6941fd
 
     

Нечто. Дилогия / The Thing (Dilogy) (Джон Карпентер / John Carpenter, Маттис ван Хейниген мл. / Matthijs van Heijningen Jr.) [1982 г., 2011 г., ужасы, фантастика, BDRip, 720р] Dub + MVO + DVO + AVO + Original (Eng) + Sub (Rus,Eng)

Ответить на тему
 
Автор
Сообщение

Пост 17-Дек-2016 13:25

[Q] 

gross1978

-Нечто (Дилогия) / The Thing (Dylogy)

Автор рипов:
Фильмы абсолютно разные и "Нечто" Карпентера это любимая классика для меня лично в жанре фантастического триллера. Однако поскольку "Нечто" 2011 года было заявлено как приквел оригинальной истории я позволил себе объединить их в дилогию. Второй фильм был также весьма неплох и сделан в "Коллекцию"
Приятного просмотра!
---Нечто / The Thing-- Производство: США, Universal Pictures, Turman-Foster Company
Год выпуска: 1982 г.
Жанр: ужасы, фантастика
Продолжительность: 01:48:34
Перевод 1: Профессиональный (многоголосый, закадровый) FDV
Перевод 2: Профессиональный (многоголосый, закадровый) R5 / Lizard
Перевод 3: Профессиональный (многоголосый, закадровый) Киномания
Перевод 4: Профессиональный (многоголосый, закадровый) 1 канал
Перевод 5: Профессиональный (многоголосый, закадровый) СТС
Перевод 6: Профессиональный (многоголосый, закадровый) Премьер Мультимедия
Перевод 7: Профессиональный (двухголосый, закадровый) НТВ+
Перевод 8: Профессиональный (двухголосый, закадровый) DTV
Перевод 9: Авторский (одноголосый, закадровый) Гаврилов (новый)
Перевод 10: Авторский (одноголосый, закадровый) Гаврилов (старый)
Перевод 11: Авторский (одноголосый, закадровый) Михалев
Перевод 12: Авторский (одноголосый, закадровый) Живов
Перевод 13: Авторский (одноголосый, закадровый) Горчаков (старый)
Перевод 14: Авторский (одноголосый, закадровый) Горчаков (новый)
Перевод 15: Авторский (одноголосый, закадровый) Жучков
Перевод 16: Профессиональный (одноголосый, закадровый) Токарев / НТВ
Перевод 17: Профессиональный (одноголосый, закадровый) Пучков
Перевод 18: Профессиональный (одноголосый, закадровый) Есарев
Оригинальный аудиопоток: английский
Комментарии: 3 вида (английский)
Навигация по главам: сохранена (главы подписаны)
Режиссер: Джон Карпентер / John Carpenter-В ролях: Курт Рассел, Кит Дэвид, Уилфорд Бримли, Т.К. Картер, Дэвид Кленнон, Ричард А. Дайсарт, Чарльз Хэллахан, Питер Мэлоуни, Ричард Мейсер, Дональд Моффет, Джоэл Полис, Томас Дж. Уэйтс, Норберт Вайссер, Ларри Дж. Франко, Нат Ирвин, Уильям Земан, Эдриенн Барбо, Джон Карпентер, Джед (собака)-Описание: Команде ученых американской исследовательской базы в Антарктике предстоит столкнуться с необъяснимым, чудовищным кошмаром. Отрезанные от всего света полярники вступают в неравную схватку с инопланетной тварью, пробудившейся после тысячелетней спячки во льдах.-
Качество видео: BDRip, 720р
Контейнер: MKV
Видео кодек: AVC
Аудио кодек: AC3
Видео: MPEG4 Video (H264) 1280x544, 23.976fps, 6 949 Kbps, 0.416 bt/px
Аудио #1: 48 kHz, AC3 Dolby Digital, 3/2 (L,C,R,l,r) + LFE ch, ~448.00 kbps - FDV
Аудио #2: 48 kHz, AC3 Dolby Digital, 3/2 (L,C,R,l,r) + LFE ch, ~448.00 kbps - R5 / Lizard
Аудио #3: 48 kHz, AC3 Dolby Digital, 3/2 (L,C,R,l,r) + LFE ch, ~448.00 kbps - Киномания
Аудио #4: 48 kHz, AC3 Dolby Digital, 2/0 (L,R) ch, 192 kbps avg - 1 канал
Аудио #5: 48 kHz, AC3 Dolby Digital, 2/0 (L,R) ch, 192 kbps avg - СТС
Аудио #6: 48 kHz, AC3 Dolby Digital, 2/0 (L,R) ch, 192 kbps avg - Premier Multimedia
Аудио #7: 48 kHz, AC3 Dolby Digital, 2/0 (L,R) ch, 192 kbps avg – НТВ+
Аудио #8: 48 kHz, AC3 Dolby Digital, 2/0 (L,R) ch, 256 kbps avg - DTV
Аудио #9: 48 kHz, AC3 Dolby Digital, 3/2 (L,C,R,l,r) + LFE ch, ~448.00 kbps – Гаврилов (новый)
Аудио #10: 48 kHz, AC3 Dolby Digital, 2/0 (L,R) ch, 192 kbps avg - Гаврилов (старый)
Аудио #11: 48 kHz, AC3 Dolby Digital, 3/2 (L,C,R,l,r) + LFE ch, ~448.00 kbps - Михалев
Аудио #12: 48 kHz, AC3 Dolby Digital, 3/2 (L,C,R,l,r) + LFE ch, ~448.00 kbps - Живов
Аудио #13: 48 kHz, AC3 Dolby Digital, 3/2 (L,C,R,l,r) + LFE ch, ~448.00 kbps - Горчаков (старый)
Аудио #14: 48 kHz, AC3 Dolby Digital, 2/0 (L,R) ch, 192 kbps avg - Горчаков новый
Аудио #15: 48 kHz, AC3 Dolby Digital, 3/2 (L,C,R,l,r) + LFE ch, ~448.00 kbps - Жучков
Аудио #16: 48 kHz, AC3 Dolby Digital, 2/0 (L,R) ch, 192 kbps avg - Токарев (НТВ)
Аудио #17: 48 kHz, AC3 Dolby Digital, 3/2 (L,C,R,l,r) + LFE ch, ~448.00 kbps - Пучков (Гоблин)
Аудио #18: 48 kHz, AC3 Dolby Digital, 3/2 (L,C,R,l,r) + LFE ch, ~448.00 kbps - Есарев
Аудио #19: 48 kHz, AC3 Dolby Digital, 3/2 (L,C,R,l,r) + LFE ch, ~448.00 kbps - оригинал
Аудио #20: 48 kHz, AC3 Dolby Digital, 2/0 (L,R) ch, 192 kbps avg - Комментарии Director Of Photography Dean Cundey
Аудио #21: 48 kHz, AC3 Dolby Digital, 2/0 (L,R) ch, 192 kbps avg - Коментарии Co-producer Stuart Cohen
Аудио #22: 48 kHz, AC3 Dolby Digital, 2/0 (L,R) ch, 192 kbps avg - Комментарии Director John Carpenter And Actor Kurt Russell
Cубтитры: русские( форсированные, полные, английские)
Формат субтитров: UTF-8 (Softsub (SRT))
Пока Карпентер снимал «Побег из Нью-Йорка» сценарист Билл Ланкастер вовсю работал над сценарием «Нечто».
В основе фильма лежит рассказ Джона В. Кэмпбелла «Кто идет?».
Джед — кличка собаки, сыгравшей в фильме. Он был наполовину волком, наполовину лайкой.
Изначально фильм был запрещен к показу в кинотеатрах Финляндии.
В оригинальном фильме 1951 года действие происходило на северном полюсе. В картине Джона Карпентера действие происходит на южном полюсе.
Изначально Дональд Плезенс должен был сыграть Блэра, однако он не смог принять участия в съёмках фильма из-за занятости на других проектах.
В фильме нет ни одного женского персонажа. Женское присутствие в фильме ограничивается голосом компьютера МакРиди и видеозаписью телепередачи, которую смотрит Палмер. По словам Джона Карпентера, в съёмочной группе была только одна женщина. Незадолго до начала съёмок она забеременела и вскоре покинула проект. Её заменили мужчиной.
«Нечто» — это первый фильм в так называемой «Трилогии Апокалипсиса» Джона Карпентера. Две другие картины – «Князь тьмы» (1987) и «В пасти безумия» (1994).
Начальные титры точно повторяют оригинальные титры фильма Ховарда Хоукса.
Данная картина стала первой в карьере Джона Карпентера, к которой он не написал музыку. Изначально Джерри Голдсмит должен был стать композитором, однако он выбыл из проекта. Эннио Морриконе заменил его и написал музыку, похожую на работы Карпентера.
Цветок из плоти, который нападает на Чайлдса, содержит 12 лепестков в форме собачьих языков, дополненных рядами собачьих зубов. Создатель спецэффектов Роб Боттин прозвал его «взбешенной капустой».
Женский компьютерный голос принадлежит Эдриенн Барбо, жене Джона Карпентера на момент съёмок.
По первоначальной идее режиссера, МакРиди должен был быть бывшим военным пилотом, служившим во Вьетнаме.
По словам Джона Карпентера и Курта Рассела, они до сих пор не знают, кто из персонажей и когда был заменен пришельцем.
Большая часть работы по созданию спецэффектов в сцене внутри клетки с собаками была проделана Стэном Уинстоном и его командой, т. к. Роб Боттин попал в больницу из-за переутомления.
Видео норвежской экспедиции об инопланетном корабле, которое смотрят персонажи фильма, — это на самом деле отрывки из «Нечто» (1951).
Последнее утро в Антарктике
«Мы свои не меняем привычки
Вдалеке от родимых домов:
В рюкзаке моем сало и спички,
И Тургенева восемь томов!»
Несчастный случай, «Снежинка»
Этому фильму можно бесконечно долго петь хвалебные оды — и это одна из них. Не могу не выразить свою давнюю любовь к данному творению Джона Карпентера еще раз рассказав о завораживающей атмосфере антарктического ужаса, когда на сотни квадратных километров одно маленькое здание с зажженым в окнах светом. И там, в этом последнем убежище от безжалостной стихии, притаился инопланетный ужас, очень умело копирующий твоего соратника, одного(а может уже и не одного) из немногих, с кем тебе предстоит провести в этих заснеженных бескрайних просторах, еще очень много времени, или очень мало…
Не удержусь и от тысячного по счету возвышения прекрасных актерских работ. Ведь с первых кадров безоговорочно веришь, что перед тобой слаженная команда людей, привыкших работать в тяжелых условиях, где от четкости и своевременности их действий зависит очень многое. И при этом каждый из персонажей — индивидуальность, у каждого есть своя должность на станции, личные характеристики и роль в предстоящем всем им испытании. Тут, конечно, стоит отдать должное сценарию. Помимо частично позаимствованой из одноименного фильма 1951 года основной идеи картины, особенно радует поведение героев в столь чрезвычайной ситуации. Никто не бегает пол-фильма с выпученными глазами и не кричит долго и высоко, призывая своего спасителя. Закаленные суровыми условиями труда полярники быстро и обдуманно предпринимают доступные им меры по решению возникших проблем, чем не только заслуживают уважение, но и добавляют динамики и антуражности происходящему.
Помимо своевременных сценарных ходов, выверенная режиссура вкупе со столь уместным здесь замечательным саундтеком заставляют зрителя буквально «примерзнуть» к экрану на добрые два часа хронометража. Карпентер очень грамотно рассчитал где напугать, где заинтриговать, а где увлечь в мощное действие. Есть, конечно, в конце, то ли слегка искусственный задел на продолжение истории, то ли не совсем удачная попытка открытого финала, но это уже не важно, ведь история рассказана и рассказана эталонным языком. Таким образом и без того крайне удачный в своей крайне удачной экспозиции сюжет обрел черты нестареющего фантастического хоррора, где монстр до сих пор ужасает и вызывает отвращение, а за событиями интересно наблюдать на протяжение не одного просмотра.
10 из 10
General
Unique ID : 247149309748729290803291978637236220638 (0xB9EF39C368FBDE7DB1212458E363B2DE)
Complete name : F:\Фильмы архив\_фантастика\Нечто (The Thing, 1982, BDRip, 720р) 6pm-2p2-2Gavrilov-Mihalev-Jivov-2Gorchakov-Juchkov-Tokarev-Goblin-Esarev-eng.-3com.mkv
Format : Matroska
Format version : Version 2
File size : 10.9 GiB
Duration : 1h 48mn
Overall bit rate : 14.3 Mbps
Movie name : rip by Gross
Encoded date : UTC 2016-12-15 20:38:06
Writing application : mkvmerge v4.7.0 ('Just Like You Imagined') сборка от Apr 21 2011 01:13:14
Writing library : libebml v1.2.0 + libmatroska v1.1.0
Video
ID : 1
Format : AVC
Format/Info : Advanced Video Codec
Format profile : [email protected]
Format settings, CABAC : Yes
Format settings, ReFrames : 11 frames
Codec ID : V_MPEG4/ISO/AVC
Duration : 1h 48mn
Bit rate : 6 949 Kbps
Width : 1 280 pixels
Height : 544 pixels
Display aspect ratio : 2.35:1
Frame rate mode : Constant
Frame rate : 23.976 fps
Color space : YUV
Chroma subsampling : 4:2:0
Bit depth : 8 bits
Scan type : Progressive
Bits/(Pixel*Frame) : 0.416
Stream size : 5.27 GiB (48%)
Writing library : x264 core 148 r2638kMod 7599210
Encoding settings : cabac=1 / ref=11 / deblock=1:-3:-3 / analyse=0x3:0x133 / me=umh / subme=11 / psy=1 / fade_compensate=0.00 / psy_rd=1.00:0.05 / mixed_ref=1 / me_range=32 / chroma_me=1 / trellis=2 / 8x8dct=1 / cqm=0 / deadzone=21,11 / fast_pskip=0 / chroma_qp_offset=-3 / threads=9 / lookahead_threads=2 / sliced_threads=0 / nr=0 / decimate=1 / interlaced=0 / bluray_compat=0 / constrained_intra=0 / fgo=0 / bframes=9 / b_pyramid=2 / b_adapt=2 / b_bias=0 / direct=1 / weightb=1 / open_gop=0 / weightp=2 / keyint=250 / keyint_min=23 / scenecut=40 / intra_refresh=0 / rc=crf / mbtree=0 / crf=17.5000 / qcomp=0.60 / qpmin=0 / qpmax=69 / qpstep=4 / ip_ratio=1.40 / pb_ratio=1.30 / aq=1:1.00
Language : English
Default : Yes
Forced : No
Audio #1
ID : 2
Format : AC-3
Format/Info : Audio Coding 3
Mode extension : CM (complete main)
Format settings, Endianness : Big
Codec ID : A_AC3
Duration : 1h 48mn
Bit rate mode : Constant
Bit rate : 448 Kbps
Channel(s) : 6 channels
Channel positions : Front: L C R, Side: L R, LFE
Sampling rate : 48.0 KHz
Bit depth : 16 bits
Compression mode : Lossy
Stream size : 348 MiB (3%)
Title : pm (FDV)
Language : Russian
Default : Yes
Forced : Yes
Audio #2
ID : 3
Format : AC-3
Format/Info : Audio Coding 3
Mode extension : CM (complete main)
Format settings, Endianness : Big
Codec ID : A_AC3
Duration : 1h 48mn
Bit rate mode : Constant
Bit rate : 448 Kbps
Channel(s) : 6 channels
Channel positions : Front: L C R, Side: L R, LFE
Sampling rate : 48.0 KHz
Bit depth : 16 bits
Compression mode : Lossy
Stream size : 348 MiB (3%)
Title : pm (R5 / Lizard)
Language : Russian
Default : No
Forced : No
Audio #3
ID : 4
Format : AC-3
Format/Info : Audio Coding 3
Mode extension : CM (complete main)
Format settings, Endianness : Big
Codec ID : A_AC3
Duration : 1h 48mn
Bit rate mode : Constant
Bit rate : 448 Kbps
Channel(s) : 6 channels
Channel positions : Front: L C R, Side: L R, LFE
Sampling rate : 48.0 KHz
Bit depth : 16 bits
Compression mode : Lossy
Stream size : 348 MiB (3%)
Title : pm (Kinomania)
Language : Russian
Default : No
Forced : No
Audio #4
ID : 5
Format : AC-3
Format/Info : Audio Coding 3
Mode extension : CM (complete main)
Format settings, Endianness : Big
Codec ID : A_AC3
Duration : 1h 48mn
Bit rate mode : Constant
Bit rate : 192 Kbps
Channel(s) : 2 channels
Channel positions : Front: L R
Sampling rate : 48.0 KHz
Bit depth : 16 bits
Compression mode : Lossy
Stream size : 149 MiB (1%)
Title : pm (1 kanal)
Language : Russian
Default : No
Forced : No
Audio #5
ID : 6
Format : AC-3
Format/Info : Audio Coding 3
Mode extension : CM (complete main)
Format settings, Endianness : Big
Codec ID : A_AC3
Duration : 1h 48mn
Bit rate mode : Constant
Bit rate : 192 Kbps
Channel(s) : 2 channels
Channel positions : Front: L R
Sampling rate : 48.0 KHz
Bit depth : 16 bits
Compression mode : Lossy
Stream size : 149 MiB (1%)
Title : pm (STS)
Language : Russian
Default : No
Forced : No
Audio #6
ID : 7
Format : AC-3
Format/Info : Audio Coding 3
Mode extension : CM (complete main)
Format settings, Endianness : Big
Codec ID : A_AC3
Duration : 1h 48mn
Bit rate mode : Constant
Bit rate : 192 Kbps
Channel(s) : 2 channels
Channel positions : Front: L R
Sampling rate : 48.0 KHz
Bit depth : 16 bits
Compression mode : Lossy
Stream size : 149 MiB (1%)
Title : pm (Premier Multimedia)
Language : Russian
Default : No
Forced : No
Audio #7
ID : 8
Format : AC-3
Format/Info : Audio Coding 3
Mode extension : CM (complete main)
Format settings, Endianness : Big
Codec ID : A_AC3
Duration : 1h 48mn
Bit rate mode : Constant
Bit rate : 192 Kbps
Channel(s) : 2 channels
Channel positions : Front: L R
Sampling rate : 48.0 KHz
Bit depth : 16 bits
Compression mode : Lossy
Stream size : 149 MiB (1%)
Title : p2 (NTV+)
Language : Russian
Default : No
Forced : No
Audio #8
ID : 9
Format : AC-3
Format/Info : Audio Coding 3
Mode extension : CM (complete main)
Format settings, Endianness : Big
Codec ID : A_AC3
Duration : 1h 48mn
Bit rate mode : Constant
Bit rate : 256 Kbps
Channel(s) : 2 channels
Channel positions : Front: L R
Sampling rate : 48.0 KHz
Bit depth : 16 bits
Compression mode : Lossy
Stream size : 199 MiB (2%)
Title : p2 (DTV)
Language : Russian
Default : No
Forced : No
Audio #9
ID : 10
Format : AC-3
Format/Info : Audio Coding 3
Mode extension : CM (complete main)
Format settings, Endianness : Big
Codec ID : A_AC3
Duration : 1h 48mn
Bit rate mode : Constant
Bit rate : 448 Kbps
Channel(s) : 6 channels
Channel positions : Front: L C R, Side: L R, LFE
Sampling rate : 48.0 KHz
Bit depth : 16 bits
Compression mode : Lossy
Stream size : 348 MiB (3%)
Title : A1 (Gavrilov) new
Language : Russian
Default : No
Forced : No
Audio #10
ID : 11
Format : AC-3
Format/Info : Audio Coding 3
Mode extension : CM (complete main)
Format settings, Endianness : Big
Codec ID : A_AC3
Duration : 1h 48mn
Bit rate mode : Constant
Bit rate : 192 Kbps
Channel(s) : 2 channels
Channel positions : Front: L R
Sampling rate : 48.0 KHz
Bit depth : 16 bits
Compression mode : Lossy
Stream size : 149 MiB (1%)
Title : A1 (Gavrilov) old
Language : Russian
Default : No
Forced : No
Audio #11
ID : 12
Format : AC-3
Format/Info : Audio Coding 3
Mode extension : CM (complete main)
Format settings, Endianness : Big
Codec ID : A_AC3
Duration : 1h 48mn
Bit rate mode : Constant
Bit rate : 448 Kbps
Channel(s) : 6 channels
Channel positions : Front: L C R, Side: L R, LFE
Sampling rate : 48.0 KHz
Bit depth : 16 bits
Compression mode : Lossy
Stream size : 348 MiB (3%)
Title : A1 (Mihalev)
Language : Russian
Default : No
Forced : No
Audio #12
ID : 13
Format : AC-3
Format/Info : Audio Coding 3
Mode extension : CM (complete main)
Format settings, Endianness : Big
Codec ID : A_AC3
Duration : 1h 48mn
Bit rate mode : Constant
Bit rate : 448 Kbps
Channel(s) : 6 channels
Channel positions : Front: L C R, Side: L R, LFE
Sampling rate : 48.0 KHz
Bit depth : 16 bits
Compression mode : Lossy
Stream size : 348 MiB (3%)
Title : A1 (Jivov)
Language : Russian
Default : No
Forced : No
Audio #13
ID : 14
Format : AC-3
Format/Info : Audio Coding 3
Mode extension : CM (complete main)
Format settings, Endianness : Big
Codec ID : A_AC3
Duration : 1h 48mn
Bit rate mode : Constant
Bit rate : 448 Kbps
Channel(s) : 6 channels
Channel positions : Front: L C R, Side: L R, LFE
Sampling rate : 48.0 KHz
Bit depth : 16 bits
Compression mode : Lossy
Stream size : 348 MiB (3%)
Title : A1 (Gorchakov) old
Language : Russian
Default : No
Forced : No
Audio #14
ID : 15
Format : AC-3
Format/Info : Audio Coding 3
Mode extension : CM (complete main)
Format settings, Endianness : Big
Codec ID : A_AC3
Duration : 1h 48mn
Bit rate mode : Constant
Bit rate : 192 Kbps
Channel(s) : 2 channels
Channel positions : Front: L R
Sampling rate : 48.0 KHz
Bit depth : 16 bits
Compression mode : Lossy
Stream size : 149 MiB (1%)
Title : A1 (Gorchakov) new
Language : Russian
Default : No
Forced : No
Audio #15
ID : 16
Format : AC-3
Format/Info : Audio Coding 3
Mode extension : CM (complete main)
Format settings, Endianness : Big
Codec ID : A_AC3
Duration : 1h 48mn
Bit rate mode : Constant
Bit rate : 448 Kbps
Channel(s) : 6 channels
Channel positions : Front: L C R, Side: L R, LFE
Sampling rate : 48.0 KHz
Bit depth : 16 bits
Compression mode : Lossy
Stream size : 348 MiB (3%)
Title : A1 (Juchkov)
Language : Russian
Default : No
Forced : No
Audio #16
ID : 17
Format : AC-3
Format/Info : Audio Coding 3
Mode extension : CM (complete main)
Format settings, Endianness : Big
Codec ID : A_AC3
Duration : 1h 48mn
Bit rate mode : Constant
Bit rate : 192 Kbps
Channel(s) : 2 channels
Channel positions : Front: L R
Sampling rate : 48.0 KHz
Bit depth : 16 bits
Compression mode : Lossy
Stream size : 149 MiB (1%)
Title : p1 (NTV / Tokarev)
Language : Russian
Default : No
Forced : No
Audio #17
ID : 18
Format : AC-3
Format/Info : Audio Coding 3
Mode extension : CM (complete main)
Format settings, Endianness : Big
Codec ID : A_AC3
Duration : 1h 48mn
Bit rate mode : Constant
Bit rate : 448 Kbps
Channel(s) : 6 channels
Channel positions : Front: L C R, Side: L R, LFE
Sampling rate : 48.0 KHz
Bit depth : 16 bits
Compression mode : Lossy
Stream size : 348 MiB (3%)
Title : p1 (Goblin)
Language : Russian
Default : No
Forced : No
Audio #18
ID : 19
Format : AC-3
Format/Info : Audio Coding 3
Mode extension : CM (complete main)
Format settings, Endianness : Big
Codec ID : A_AC3
Duration : 1h 48mn
Bit rate mode : Constant
Bit rate : 448 Kbps
Channel(s) : 6 channels
Channel positions : Front: L C R, Side: L R, LFE
Sampling rate : 48.0 KHz
Bit depth : 16 bits
Compression mode : Lossy
Stream size : 348 MiB (3%)
Title : p1 (Esarev)
Language : Russian
Default : No
Forced : No
Audio #19
ID : 20
Format : AC-3
Format/Info : Audio Coding 3
Mode extension : CM (complete main)
Format settings, Endianness : Big
Codec ID : A_AC3
Duration : 1h 48mn
Bit rate mode : Constant
Bit rate : 448 Kbps
Channel(s) : 6 channels
Channel positions : Front: L C R, Side: L R, LFE
Sampling rate : 48.0 KHz
Bit depth : 16 bits
Compression mode : Lossy
Stream size : 348 MiB (3%)
Title : original
Language : English
Default : No
Forced : No
Audio #20
ID : 21
Format : AC-3
Format/Info : Audio Coding 3
Mode extension : CM (complete main)
Format settings, Endianness : Big
Codec ID : A_AC3
Duration : 1h 48mn
Bit rate mode : Constant
Bit rate : 192 Kbps
Channel(s) : 2 channels
Channel positions : Front: L R
Sampling rate : 48.0 KHz
Bit depth : 16 bits
Compression mode : Lossy
Stream size : 149 MiB (1%)
Title : Commentary With Director Of Photography Dean Cundey
Language : English
Default : No
Forced : No
Audio #21
ID : 22
Format : AC-3
Format/Info : Audio Coding 3
Mode extension : CM (complete main)
Format settings, Endianness : Big
Codec ID : A_AC3
Duration : 1h 48mn
Bit rate mode : Constant
Bit rate : 192 Kbps
Channel(s) : 2 channels
Channel positions : Front: L R
Sampling rate : 48.0 KHz
Bit depth : 16 bits
Compression mode : Lossy
Stream size : 149 MiB (1%)
Title : Commentary With Co-producer Stuart Cohen
Language : English
Default : No
Forced : No
Audio #22
ID : 23
Format : AC-3
Format/Info : Audio Coding 3
Mode extension : CM (complete main)
Format settings, Endianness : Big
Codec ID : A_AC3
Duration : 1h 48mn
Bit rate mode : Constant
Bit rate : 192 Kbps
Channel(s) : 2 channels
Channel positions : Front: L R
Sampling rate : 48.0 KHz
Bit depth : 16 bits
Compression mode : Lossy
Stream size : 149 MiB (1%)
Title : Commentary By Director John Carpenter And Actor Kurt Russell
Language : English
Default : No
Forced : No
Text #1
ID : 24
Format : UTF-8
Codec ID : S_TEXT/UTF8
Codec ID/Info : UTF-8 Plain Text
Title : Forced
Language : Russian
Default : Yes
Forced : No
Text #2
ID : 25
Format : UTF-8
Codec ID : S_TEXT/UTF8
Codec ID/Info : UTF-8 Plain Text
Title : Full (R5)
Language : Russian
Default : No
Forced : No
Text #3
ID : 26
Format : UTF-8
Codec ID : S_TEXT/UTF8
Codec ID/Info : UTF-8 Plain Text
Title : Full (Киномания)
Language : Russian
Default : No
Forced : No
Text #4
ID : 27
Format : UTF-8
Codec ID : S_TEXT/UTF8
Codec ID/Info : UTF-8 Plain Text
Title : Full (Гоблин)
Language : Russian
Default : No
Forced : No
Text #5
ID : 28
Format : UTF-8
Codec ID : S_TEXT/UTF8
Codec ID/Info : UTF-8 Plain Text
Language : English
Default : No
Forced : No
Menu
00:00:00.000 : en:Main Titles
00:02:07.794 : en:Antarctica, Winter, 1982
00:04:34.899 : en:Station 4
00:07:02.880 : en:Death in the Snow
00:10:24.248 : en:Looking for Answers
00:14:22.987 : en:It Begins...
00:15:49.281 : en:The Norwegian Camp
00:22:14.249 : en:The Man-Thing
00:24:50.447 : en:What Appears to Be Normal
00:27:01.619 : en:The Beast Within
00:30:13.812 : en:The Thing
00:33:03.481 : en:Autopsy on an Alien
00:34:15.720 : en:The Perfect Imitation
00:36:03.411 : en:Something in the Ice
00:37:22.657 : en:The Crater
00:40:05.444 : en:It's Different Than Us
00:41:44.627 : en:The Probability of Infection
00:45:32.312 : en:They're Not Dead Yet
00:46:31.747 : en:The Thing That Was Bennings
00:50:18.223 : en:Blair Goes Berserk
00:54:44.197 : en:Matters of Trust
00:57:36.411 : en:Bad Blood
00:59:08.795 : en:The Man-in-Charge
01:02:47.388 : en:Waiting
01:05:28.382 : en:Where's Fuchs?
01:09:51.979 : en:Macready Cuts Loose
01:14:23.667 : en:The Deadly Defibrillation
01:17:43.700 : en:A Little Test
01:18:44.803 : en:Something in the Blood
01:25:18.571 : en:Finishing the Test
01:26:41.237 : en:Blair's Little Project
01:29:19.187 : en:No Way Out
01:31:14.969 : en:Warming Things Up
01:34:25.701 : en:Right Down Into the Ice
01:37:19.333 : en:The Real Thing
01:39:14.448 : en:One Last Thing
01:42:09.206 : en:End Titles
x264 [info]: frame I:1006 Avg QP:15.44 size:118529
x264 [info]: frame P:30153 Avg QP:16.57 size: 63594
x264 [info]: frame B:125023 Avg QP:19.16 size: 30859
x264 [info]: consecutive B-frames: 1.1% 1.1% 4.9% 10.9% 21.2% 49.4% 6.2% 2.1% 1.9% 1.1%
x264 [info]: mb I I16..4: 7.7% 82.6% 9.7%
x264 [info]: mb P I16..4: 0.1% 32.2% 0.8% P16..4: 20.1% 28.8% 15.2% 2.1% 0.1% skip: 0.6%
x264 [info]: mb B I16..4: 0.0% 8.7% 0.1% B16..8: 34.5% 23.5% 6.6% direct: 8.1% skip:18.4% L0:43.3% L1:42.3% BI:14.4%
x264 [info]: 8x8 transform intra:97.4% inter:56.4%
x264 [info]: coded y,uvDC,uvAC intra: 99.6% 78.6% 53.3% inter: 45.1% 23.3% 3.1%
x264 [info]: i16 v,h,dc,p: 10% 7% 37% 47%
x264 [info]: i8 v,h,dc,ddl,ddr,vr,hd,vl,hu: 7% 6% 22% 10% 12% 11% 10% 10% 11%
x264 [info]: i4 v,h,dc,ddl,ddr,vr,hd,vl,hu: 9% 6% 4% 11% 17% 16% 14% 13% 12%
x264 [info]: i8c dc,h,v,p: 37% 32% 18% 13%
x264 [info]: Weighted P-Frames: Y:22.9% UV:16.8%
x264 [info]: ref P L0: 35.8% 8.3% 18.0% 8.4% 7.5% 5.4% 5.3% 2.9% 2.9% 2.4% 2.5% 0.5% 0.0%
x264 [info]: ref B L0: 70.1% 10.5% 6.0% 3.6% 2.7% 2.4% 2.0% 1.4% 0.8% 0.5%
x264 [info]: ref B L1: 93.9% 6.1%
x264 [info]: kb/s:7239.56
encoded 156182 frames, 3.10 fps, 7239.56 kb/s
--Нечто / The Thing-- Год выпуска: 2011
Производство: США, Канада
Жанр: ужасы, фантастика, триллер
Продолжительность: 01:43:01
Перевод 1: Профессиональный (полное дублированияе) Blu-Ray Rus
Перевод 2: Авторский (одноголосый, закадровый) Гаврилов
Перевод 3: Авторский (одноголосый, закадровый) Горчаков
Оригинальный аудиопоток: английский
Субтитры: русские, английские
Режиссер: Маттис ван Хейниген мл. / Matthijs van Heijningen Jr.
В ролях: Мэри Элизабет Уинстэд, Джоэл Эдгертон, Ульрих Томсен, Эрик Кристиан Олсен, Адевале Акиннуойе-Агбадже, Пол Браунштейн, Тронд Эспен Сейм, Ким Баббс, Ёрген Лангхелле, Ян Гуннар Рёйсе
Описание: Научная экспедиция обнаруживает в Антарктике потерпевший крушение инопланетный космический корабль. Группа отчаянных учёных проникает в его недра и неожиданно для самих себя открывает ящик Пандоры. Среди непроходимых снегов и ледяных гор, выпущенное на свободу Нечто устраивает на исследовательской станции жуткую бойню.

Качество видео: BDRip, 720р
Контейнер: MKV
Видео кодек: H264
Аудио кодек: AC3
Видео: MPEG4 Video (H264) 1280x536 23.976fps, 4 302 Kbps, 0.262 bit/pixel
Аудио #1: 48 kHz, AC3 Dolby Digital, 3/2 (L,C,R,l,r) + LFE ch, ~448.00 kbps - Дубляж
Аудио #2: 48 kHz, AC3 Dolby Digital, 3/2 (L,C,R,l,r) + LFE ch, ~448.00 kbps - Гаврилов
Аудио #3: 48 kHz, AC3 Dolby Digital, 3/2 (L,C,R,l,r) + LFE ch, ~448.00 kbps - Горчаков
Аудио #4: 48 kHz, AC3 Dolby Digital, 3/2 (L,C,R,l,r) + LFE ch, ~448.00 kbps - оригинал
x264 [info]: frame I:1139 Avg QP:12.50 size:110998
x264 [info]: frame P:30336 Avg QP:13.81 size: 49845
x264 [info]: frame B:116716 Avg QP:16.40 size: 15240
x264 [info]: consecutive B-frames: 1.7% 2.9% 5.6% 10.4% 20.4% 50.1% 6.9% 1.2% 0.6% 0.2%
x264 [info]: mb I I16..4: 20.5% 67.3% 12.2%
x264 [info]: mb P I16..4: 0.4% 20.8% 0.8% P16..4: 22.9% 34.9% 16.6% 3.1% 0.1% skip: 0.4%
x264 [info]: mb B I16..4: 0.0% 1.6% 0.1% B16..8: 35.8% 29.2% 6.9% direct: 5.3% skip:21.0% L0:45.4% L1:44.3% BI:10.4%
x264 [info]: 8x8 transform intra:91.4% inter:48.5%
x264 [info]: coded y,uvDC,uvAC intra: 98.3% 84.4% 76.5% inter: 31.2% 14.1% 4.0%
x264 [info]: i16 v,h,dc,p: 6% 6% 34% 54%
x264 [info]: i8 v,h,dc,ddl,ddr,vr,hd,vl,hu: 10% 8% 19% 9% 11% 10% 11% 10% 12%
x264 [info]: i4 v,h,dc,ddl,ddr,vr,hd,vl,hu: 13% 6% 4% 10% 16% 14% 14% 11% 12%
x264 [info]: i8c dc,h,v,p: 52% 22% 14% 12%
x264 [info]: Weighted P-Frames: Y:15.5% UV:11.4%
x264 [info]: ref P L0: 39.6% 5.6% 19.4% 8.4% 7.5% 5.1% 4.8% 2.5% 2.5% 1.9% 2.0% 0.4% 0.0%
x264 [info]: ref B L0: 67.5% 12.6% 6.6% 3.8% 2.8% 2.5% 1.8% 1.3% 0.7% 0.4%
x264 [info]: ref B L1: 93.3% 6.7%
x264 [info]: kb/s:4423.09
encoded 148191 frames, 3.72 fps, 4423.09 kb/s
General
Unique ID : 238653297219323713419840408605954714277 (0xB38AF401412FF72E919F21638768AAA5)
Complete name : F:\Фильмы архив\_фантастика\Нечто (The Thing, 2011, BDRip, 720p) dub-Gavrilov-Gorchakov-eng.mkv
Format : Matroska
Format version : Version 2
File size : 4.47 GiB
Duration : 1h 43mn
Overall bit rate : 6 218 Kbps
Movie name : rip by Gross
Encoded date : UTC 2016-12-12 20:33:05
Writing application : mkvmerge v4.7.0 ('Just Like You Imagined') сборка от Apr 21 2011 01:13:14
Writing library : libebml v1.2.0 + libmatroska v1.1.0
Video
ID : 1
Format : AVC
Format/Info : Advanced Video Codec
Format profile : [email protected]
Format settings, CABAC : Yes
Format settings, ReFrames : 11 frames
Codec ID : V_MPEG4/ISO/AVC
Duration : 1h 43mn
Bit rate : 4 302 Kbps
Width : 1 280 pixels
Height : 536 pixels
Display aspect ratio : 2.40:1
Frame rate mode : Constant
Frame rate : 23.976 fps
Color space : YUV
Chroma subsampling : 4:2:0
Bit depth : 8 bits
Scan type : Progressive
Bits/(Pixel*Frame) : 0.262
Stream size : 3.10 GiB (69%)
Writing library : x264 core 148 r2638kMod 7599210
Encoding settings : cabac=1 / ref=11 / deblock=1:-3:-3 / analyse=0x3:0x133 / me=umh / subme=11 / psy=1 / fade_compensate=0.00 / psy_rd=1.00:0.05 / mixed_ref=1 / me_range=32 / chroma_me=1 / trellis=2 / 8x8dct=1 / cqm=0 / deadzone=21,11 / fast_pskip=0 / chroma_qp_offset=-3 / threads=9 / lookahead_threads=2 / sliced_threads=0 / nr=0 / decimate=1 / interlaced=0 / bluray_compat=0 / constrained_intra=0 / fgo=0 / bframes=9 / b_pyramid=2 / b_adapt=2 / b_bias=0 / direct=1 / weightb=1 / open_gop=0 / weightp=2 / keyint=250 / keyint_min=23 / scenecut=40 / intra_refresh=0 / rc=crf / mbtree=0 / crf=17.0000 / qcomp=0.60 / qpmin=0 / qpmax=69 / qpstep=4 / ip_ratio=1.40 / pb_ratio=1.30 / aq=1:1.00
Language : English
Default : Yes
Forced : No
Audio #1
ID : 2
Format : AC-3
Format/Info : Audio Coding 3
Mode extension : CM (complete main)
Format settings, Endianness : Big
Codec ID : A_AC3
Duration : 1h 43mn
Bit rate mode : Constant
Bit rate : 448 Kbps
Channel(s) : 6 channels
Channel positions : Front: L C R, Side: L R, LFE
Sampling rate : 48.0 KHz
Bit depth : 16 bits
Compression mode : Lossy
Stream size : 330 MiB (7%)
Title : dub (Blu-ray RUS)
Language : Russian
Default : Yes
Forced : Yes
Audio #2
ID : 3
Format : AC-3
Format/Info : Audio Coding 3
Mode extension : CM (complete main)
Format settings, Endianness : Big
Codec ID : A_AC3
Duration : 1h 43mn
Bit rate mode : Constant
Bit rate : 448 Kbps
Channel(s) : 6 channels
Channel positions : Front: L C R, Side: L R, LFE
Sampling rate : 48.0 KHz
Bit depth : 16 bits
Compression mode : Lossy
Stream size : 330 MiB (7%)
Title : A1 (Gavrilov)
Language : Russian
Default : No
Forced : No
Audio #3
ID : 4
Format : AC-3
Format/Info : Audio Coding 3
Mode extension : CM (complete main)
Format settings, Endianness : Big
Codec ID : A_AC3
Duration : 1h 43mn
Bit rate mode : Constant
Bit rate : 448 Kbps
Channel(s) : 6 channels
Channel positions : Front: L C R, Side: L R, LFE
Sampling rate : 48.0 KHz
Bit depth : 16 bits
Compression mode : Lossy
Stream size : 330 MiB (7%)
Title : A1 (Gorchakov)
Language : Russian
Default : No
Forced : No
Audio #4
ID : 5
Format : AC-3
Format/Info : Audio Coding 3
Mode extension : CM (complete main)
Format settings, Endianness : Big
Codec ID : A_AC3
Duration : 1h 43mn
Bit rate mode : Constant
Bit rate : 448 Kbps
Channel(s) : 6 channels
Channel positions : Front: L C R, Side: L R, LFE
Sampling rate : 48.0 KHz
Bit depth : 16 bits
Compression mode : Lossy
Stream size : 330 MiB (7%)
Title : original
Language : English
Default : No
Forced : No
Text #1
ID : 6
Format : UTF-8
Codec ID : S_TEXT/UTF8
Codec ID/Info : UTF-8 Plain Text
Language : Russian
Default : No
Forced : No
Text #2
ID : 7
Format : UTF-8
Codec ID : S_TEXT/UTF8
Codec ID/Info : UTF-8 Plain Text
Title : SDH
Language : English
Default : No
Forced : No
Menu
00:00:00.000 : en:Chapter 01
00:04:31.771 : en:Chapter 02
00:10:51.859 : en:Chapter 03
00:14:41.422 : en:Chapter 04
00:17:05.607 : en:Chapter 05
00:20:39.655 : en:Chapter 06
00:25:09.549 : en:Chapter 07
00:32:49.509 : en:Chapter 08
00:38:05.950 : en:Chapter 09
00:43:02.705 : en:Chapter 10
00:51:15.739 : en:Chapter 11
00:55:13.184 : en:Chapter 12
01:00:04.350 : en:Chapter 13
01:04:51.804 : en:Chapter 14
01:09:58.235 : en:Chapter 15
01:14:39.516 : en:Chapter 16
01:20:58.353 : en:Chapter 17
01:24:46.372 : en:Chapter 18
01:30:30.299 : en:Chapter 19
01:34:56.315 : en:Chapter 20
- -
Download / Скачать

Хотите скачать бесплатно? Зарегистрируйтесь на сайте (ссылка на регистрацию). Pirat.ca - самый быстрый торрент трекер в рунете!

Как скачивать  ·   Что такое торрент  ·   Рейтинг и ограничения

Показать сообщения:    
Ответить на тему

Текущее время: Сегодня 09:45

Часовой пояс: GMT + 4



Вы не можете начинать темы
Вы не можете отвечать на сообщения
Вы не можете редактировать свои сообщения
Вы не можете удалять свои сообщения
Вы не можете голосовать в опросах
Вы не можете прикреплять файлы к сообщениям
Вы не можете скачивать файлы

▼ Вниз