ML
     
  Уважаемый Гость!
Вы можете поддержать проект и зарегистрироваться у наших партнеров - онлайн-стратегия MyLands. При регистрации в игре Вы получите код, который сможете активировать после регистрации на pirat.ca и получить 1000 дублонов.

Ваш код:
8dd5c4e79f78deb131adcbe45082288ea1a50019
 
     

Michael Schenker: Temple of Rock - Live In Europe [2012 г.] (Hard rock, heavy metal) [BDRip, 1080p]

Ответить на тему
 
Автор
Сообщение

Пост 05-Янв-2017 14:22

[Q] 

somik

-Michael Schenker: Temple of Rock - Live In Europe-- Год выпуска: 2012 г.
Страна: Germany
Жанр: Hard rock, heavy metal
Режиссер: Michael Schenker, Michael Voss
Студия: Kidroom Studios, Münster, Germany. Label: In-akustik GmbH & Co. KG
Продолжительность: 01:40:38-Качество видео: BDRip
Контейнер: MKV
Стандарт разрешения: 1080p
Видео кодек: MPEG4 AVC
Аудио кодек: DTS
Видео: 1920x1080, 29.97fps, 12.5 Mbps
Аудио: DTS, 48000 Hz, 6ch, 1509 kbps-Описание: Запись концерта в Тилбурге в мае 2012 года в рамках Temple Of Rock тура.
По словам Майкла Шенкера, он рассматривает деятельность состава Temple of Rock как «завершение строительства замка хард-рока, чей фундамент был заложен на заре 70-х первыми альбомами Led Zeppelin, Deep Purple, Rainbow и Black Sabbath. Его стены – это творчество UFO и других составов конца 70-х. В 80-е эти стены только были укреплены песнями Scorpions и иных влиятельных коллективов. Наверное, от меня не следует ожидать какой-то совершенно новой по сути музыки, но я чрезвычайно рад, что мои новые песни – часть этого замка! Невероятно здорово, что в студии и на сцене мне довелось работать с лучшими именами мировой рок-сцены!»
В записи концерта в Тилбурге принял участие современный состав Michael Schenker’s Temple Of Rock – это, помимо самого Майкла, вокалист Дуги Уайт (Rainbow, Yngwie Malmsteen и др.), бывшая ритм-секция Scorpions эпохи звездных достижений группы 80-х годов – барабанщик Герман Раребелл и бас-гитарист Францис Бухгольц, а также клавишник и ритм-гитарист Уэйн Файндли (MSG). В записях с фестиваля High Voltage вместе с Майклом на одной сцене также фигурируют вокалист Михаэль Фосс (экс-Casanova, Bonfire) и бас-гитарист Эллиот Дин Рабинсон, а, кроме того, гитарист Scorpions Рудольф Шенкер, бывший бас-гитарист и лидер UFO Пит Уэй и бывший вокалист Ингви Мальмстина Джефф Скотт Сото.
«Live In Europe» – это лучшая по материалу, исполнению и энергетике аудио-, видеозапись Майкла Шенкера, куда удачно вписался материал всех эпох его творчества – Scorpions, UFO, MSG.-
Тилбург, Нидерланды, 13.05.2012
01. Into The Arena
02. Armed And Ready
03. Lovedrive
04. Another Piece Of Meat
05. Hanging On (Special Guest: Michael Voss (Lead Vocals & Guitars)
06. Cry For The Nations
07. Let Sleeping Dogs Lie
08. Coast To Coast
09. Assault Attack
10. Before The Devil Knows You're Dead
11. Lights Out
12. On And On
13. Let It Roll
14. Shoot Shoot
15. Rock You Like A Hurricane
16. Rock Bottom
17. Holiday
18. Blackout
19. Doctor Doctor
Общее
Уникальный идентификатор : 223700355449814191935840334610062830432 (0xA84B1F0E5FDB5375A8D8593132DEEB60)
Полное имя : F:\Michael Schenker Temple of Rock - Live In Europe (2012) BDRip 1080p\Michael Schenker.Temple of Rock - Live In Europe.2012. BDRip.1080p.[pirat.ca].mkv
Формат : Matroska
Версия формата : Version 2
Размер файла : 9,85 Гбайт
Продолжительность : 1 ч. 40 м.
Общий поток : 14,0 Мбит/сек
Название фильма : 2012 Michael Schenker: Temple of Rock - Live In Europe
Дата кодирования : UTC 2017-01-05 08:31:27
Программа кодирования : mkvmerge v5.3.0 ('I could have danced') built on Feb 9 2012 10:38:07
Библиотека кодирования : libebml v1.2.3 + libmatroska v1.3.0
Видео
Идентификатор : 1
Формат : AVC
Формат/Информация : Advanced Video Codec
Профиль формата : [email protected]
Параметр CABAC формата : Да
Параметр ReFrames формата : 4 кадра
Идентификатор кодека : V_MPEG4/ISO/AVC
Продолжительность : 1 ч. 40 м.
Битрейт : 12,5 Мбит/сек
Ширина : 1920 пикселей
Высота : 1080 пикселей
Соотношение сторон : 16:9
Режим частоты кадров : Постоянный
Частота кадров : 29,970 (30000/1001) кадров/сек
Цветовое пространство : YUV
Субдискретизация насыщенности : 4:2:0
Битовая глубина : 8 бит
Тип развёртки : Прогрессивная
Бит/(Пиксели*Кадры) : 0.201
Размер потока : 8,59 Гбайт (87%)
Заголовок : 2012 Michael Schenker: Temple of Rock - Live In Europe
Библиотека кодирования : x264 core 146 r2538 121396c
Настройки программы : cabac=1 / ref=4 / deblock=1:-1:-1 / analyse=0x3:0x133 / me=umh / subme=11 / psy=1 / psy_rd=1.07:0.23 / mixed_ref=1 / me_range=24 / chroma_me=1 / trellis=2 / 8x8dct=1 / cqm=0 / deadzone=21,11 / fast_pskip=0 / chroma_qp_offset=-3 / threads=12 / lookahead_threads=3 / sliced_threads=0 / nr=0 / decimate=1 / interlaced=0 / bluray_compat=0 / constrained_intra=0 / bframes=10 / b_pyramid=2 / b_adapt=2 / b_bias=0 / direct=3 / weightb=1 / open_gop=0 / weightp=2 / keyint=250 / keyint_min=25 / scenecut=40 / intra_refresh=0 / rc=2pass / mbtree=0 / bitrate=12500 / ratetol=1.0 / qcomp=0.60 / qpmin=0 / qpmax=69 / qpstep=4 / cplxblur=20.0 / qblur=0.5 / ip_ratio=1.40 / pb_ratio=1.30 / aq=2:1.00
Язык : English
Default : Да
Forced : Нет
Statistics Tags Issue : mkvmerge v8.3.0 ('Over the Horizon') 64bit 2016-05-03 10:24:16 / mkvmerge v5.3.0 ('I could have danced') built on Feb 9 2012 10:38:07 2017-01-05 08:31:27
FromStats_BitRate : 12501351
FromStats_Duration : 01:40:38.866000000
FromStats_FrameCount : 180985
FromStats_StreamSize : 9436748393
Аудио
Идентификатор : 2
Формат : DTS
Формат/Информация : Digital Theater Systems
Режим : 16
Параметр Endianness формата : Big
Идентификатор кодека : A_DTS
Продолжительность : 1 ч. 40 м.
Вид битрейта : Постоянный
Битрейт : 1509 Кбит/сек
Каналы : 6 каналов
Расположение каналов : Front: L C R, Side: L R, LFE
Частота : 48,0 КГц
Частота кадров : 93,750 кадра/сек (512 spf)
Битовая глубина : 24 бит
Метод сжатия : С потерями
Размер потока : 1,06 Гбайт (11%)
Заголовок : DTS 5.1
Язык : English
Default : Да
Forced : Нет
Statistics Tags Issue : mkvmerge v8.3.0 ('Over the Horizon') 64bit 2016-05-03 10:24:16 / mkvmerge v5.3.0 ('I could have danced') built on Feb 9 2012 10:38:07 2017-01-05 08:31:27
FromStats_BitRate : 1509000
FromStats_Duration : 01:40:38.912000000
FromStats_FrameCount : 566148
FromStats_StreamSize : 1139089776
Меню
00:00:00.000 : en:Chapter 01
00:05:23.556 : en:Chapter 02
00:10:38.471 : en:Chapter 03
00:15:07.439 : en:Chapter 04
00:18:52.364 : en:Chapter 05
00:23:26.438 : en:Chapter 06
00:28:49.894 : en:Chapter 07
00:35:45.576 : en:Chapter 08
00:40:06.704 : en:Chapter 09
00:45:16.513 : en:Chapter 10
00:49:29.299 : en:Chapter 11
00:54:38.775 : en:Chapter 12
01:00:13.343 : en:Chapter 13
01:04:41.844 : en:Chapter 14
01:08:26.769 : en:Chapter 15
01:13:05.481 : en:Chapter 16
01:26:22.043 : en:Chapter 17
01:30:38.232 : en:Chapter 18
01:34:32.900 : en:Chapter 19
Карьера
Юность:
Михаэль Шенкер родился в Зарштедте в Германии и за свою длинную музыкальную карьеру стал одним из наиболее влиятельных и уважаемых рок-гитаристов на сегодняшний день. Он начал играть в раннем возрасте, когда его брат Рудольф принёс домой гитару Gibson Flying V, которая захватила воображение Михаэля. Шенкер дебютировал со Scorpions на их первом альбоме Lonesome Crow в возрасте 16 лет.
UFO
Шенкер присоединился к UFO в связи с необычными обстоятельствами. Лондонская группа приехала сыграть несколько концертов в Германии. Но их гитарист Берни Марсден забыл свой паспорт и поэтому не смог принять участие в первом концерте. UFO заметили Михаэля на саундчеке со Scorpions (те были на разогреве у имевших в Германии статус хед-лайнеров лондонцев) и предложили ему занять места гитариста на вечернем концерте — Михаэль великолепно справился со своей миссией в составе обеих групп.
Вскоре после этого Михаэль получил предложение занять место гитариста в UFO на постоянной основе, которое он принял и переехал в столицу Великобритании. Поначалу Шенкеру было трудно общаться с группой, потому что он плохо говорил по-английски, однако теперь Михаэль предпочитает, чтобы его называли Майклом.
Scorpions
Несмотря на шумный успех UFO (чем группа во многом была обязана таланту Михаэля и как музыканта, и как автора), он ушёл из группы в самом конце 1978 года и присоединился к Scorpions при записи альбома Lovedrive в 1979-м.
Michael Schenker Group
Михаэль долгое время имел проблемы с алкоголем и наркотиками, и многие музыканты отмечали, что с ним из-за этого очень трудно работать. Зачастую он напивался так, что становился некоммуникабелен.
Михаэль получал предложения занять место гитариста от Aerosmith (описано в их биографии «Walk This Way») и Оззи Осборна (Осборн говорил о том, что велись переговоры с Михаэлем Шенкером в интервью, данным Hit Parader в 1982 году). Шенкер отклонил все предложения и в 1980-м основал собственную группу — Michael Schenker Group.
В 2009 году Михаэль был включен в список величайших гитаристов всех времен, составленный британским журналом Classic Rock.
Состав Michael Schenker Group:
Michael Schenker - lead guitars
Doogie White - lead vocals (RAINBOW, YNGWIE MALMSTEEN, TANK)
Herman Rarebell - drums
Francis Buchholz - bass
Wayne Findlay - keyboards, guitars, backing vocals
Michael Voss - lead vocals, guitar – Special guest on "Hanging On"
Download / Скачать

Хотите скачать бесплатно? Зарегистрируйтесь на сайте (ссылка на регистрацию). Pirat.ca - самый быстрый торрент трекер в рунете!

Как скачивать  ·   Что такое торрент  ·   Рейтинг и ограничения

BilG

Морской Волк

Пост 05-Янв-2017 17:44 (спустя 3 часа)

[Q] 

Хорошой концерт Michael Schenker’s Temple Of Rock.
[Профиль]  [ЛС] 

Пост 05-Янв-2017 21:53 (спустя 4 часа)

Топик был перенесен из форума Music video (HD/DVD) (Трюм) в форум Rock
sergej644
 
Показать сообщения:    
Ответить на тему

Текущее время: Сегодня 09:02

Часовой пояс: GMT + 4



Вы не можете начинать темы
Вы не можете отвечать на сообщения
Вы не можете редактировать свои сообщения
Вы не можете удалять свои сообщения
Вы не можете голосовать в опросах
Вы не можете прикреплять файлы к сообщениям
Вы не можете скачивать файлы

▼ Вниз