ML
     
  Уважаемый Гость!
Вы можете поддержать проект и зарегистрироваться у наших партнеров - онлайн-стратегия MyLands. При регистрации в игре Вы получите код, который сможете активировать после регистрации на pirat.ca и получить 1000 дублонов.

Ваш код:
4a274f53b33d6ca384ead601b165a45d169c54c0
 
     

(Rock, Hard Rock) Rainbow - The Singles Box Set 1975-1986 (Remastered, 19CD) - 2014 [FLAC, image +.cue, lossless]

Ответить на тему
 
Автор
Сообщение

Пост 05-Янв-2017 21:55

[Q] 

sergej644

-Rainbow - The Singles Box Set 1975-1986 (Remastered, 19CD)--
Год издания: 2014
Страна: England
Жанр: Rock, Hard Rock
Продолжительность: 03:14:11-Лейбл издания: © + ® Polydor / Universal Music Group
Страна-выпуска диска: EU
Номер по каталогу: 0600753460535-Формат: FLAC
Битрейт аудио: Lossless
Тип рипа: image +.cue
Наличие сканов в содержимом раздачи: да
-

01.Man On The Silver Mountain (7' Edit)(3:59)
02.Snake Charmer(4:33)

01.Still I'm Sad(3:56)
02.Temple Of The King(4:44)

01.Man On The Silver Mountain(4:39)
02.Snake Charmer(4:33)
03.If You Don't Like Rock 'N' Roll(2:38)
04.Sixteenth Century Greensleeves(3:31)

01.Starstruck(4:08)
02.Run With The Wolf(3:43)

01.Kill The King (Live / Edit - On Stage)(4:46)
02.Man On The Silver Mountain (Live - On Stage)(5:07)
03.Mistreated (Live / 7' Edit - On Stage)(7:16)

01.Long Live Rock 'N' Roll(4:24)
02.Sensitive to Light(3:03)

01.La Connection (7' Edit)(3:44)
02.Lady Of The Lake(3:39)

01.Since You Been Gone(3:20)
02.Bad Girl(4:52)

01.Since You Been Gone(3:20)
02.No Time To Lose(3:44)

01.All Night Long(3:53)
02.Weiss Heim(5:13)

01.I Surrender(3:28)
02.Vielleicht Das Nachster Zeit (Maybe Next Time)(3:20)

01.Difficult To Cure(6:01)
02.Can't Happen Here (7' Edit)(4:08)
03.Jealous Lover(3:13)

01.Magic(4:10)
02.Freedom Fighter(4:23)

01.Can't Happen Here (7' Edit)(4:09)
02.Jealous Lover(3:13)

01.Stone Cold(5:20)
02.Rock Fever(3:52)

01.Death Alley Driver(4:44)
02.Tite Squeeze(3:16)

01.Street Of Dreams(4:28)
02.Anybody There(2:40)
03.Power (Live At The Convention Center, San Antonio)(4:35)

01.Can't Let You Go (7' Edit)(3:28)
02.All Night Long (Live At David's Hall, Cardiff)(5:26)
03.Stranded (Live At David's Hall, Cardiff)(4:19)

01.Bad Girl(4:53)
02.Spotlight Kid (Live At Budokan, Tokyo)(6:02)
03.Man On The Silver Mountain (Live)(8:17)
-
Код:
Exact Audio Copy V1.0 beta 3 from 29. August 2011
EAC extraction logfile from 9. March 2014, 22:24
Rainbow / Man On The Silver Mountain CD I
Used drive  : ASUS    DRW-24B3LT   Adapter: 2  ID: 0
Read mode               : Secure
Utilize accurate stream : Yes
Defeat audio cache      : Yes
Make use of C2 pointers : No
Read offset correction                      : 6
Overread into Lead-In and Lead-Out          : No
Fill up missing offset samples with silence : Yes
Delete leading and trailing silent blocks   : No
Null samples used in CRC calculations       : Yes
Used interface                              : Native Win32 interface for Win NT & 2000
Used output format : Internal WAV Routines
Sample format      : 44.100 Hz; 16 Bit; Stereo
TOC of the extracted CD
     Track |   Start  |  Length  | Start sector | End sector
    ---------------------------------------------------------
        1  |  0:00.00 |  3:59.07 |         0    |    17931
        2  |  3:59.07 |  4:32.51 |     17932    |    38382
Range status and errors
Selected range
     Filename D:\Osieron\Desktop\Test&Copy\Rainbow - Man On The Silver Mountain CD I.wav
     Peak level 96.6 %
     Extraction speed 3.9 X
     Range quality 100.0 %
     Test CRC DD6ECFCC
     Copy CRC DD6ECFCC
     Copy OK
No errors occurred
AccurateRip summary
Track  1  accurately ripped (confidence 1)  [A6D2FB7E]  (AR v2)
Track  2  accurately ripped (confidence 1)  [38973CF1]  (AR v2)
All tracks accurately ripped
End of status report
Код:
REM ACCURATERIPID 0000dbfb-00024de6-0901ff02
REM GENRE "Hard Rock"
REM DATE 2014
REM DISCID 0901FF02
REM COMMENT ExactAudioCopy v1.0b3
PERFORMER "Rainbow"
TITLE "Man On The Silver Mountain CD I"
FILE "Rainbow - Man On The Silver Mountain CD I.flac" WAVE
  TRACK 01 AUDIO
    TITLE "Man On The Silver Mountain (7' Edit)"
    INDEX 01 00:00:00
  TRACK 02 AUDIO
    TITLE "Snake Charmer"
    INDEX 00 03:57:24
    INDEX 01 03:59:07
Код:
Exact Audio Copy V1.0 beta 3 from 29. August 2011
EAC extraction logfile from 9. March 2014, 22:30
Rainbow / Still I'm Sad CD II
Used drive  : ASUS    DRW-24B3LT   Adapter: 2  ID: 0
Read mode               : Secure
Utilize accurate stream : Yes
Defeat audio cache      : Yes
Make use of C2 pointers : No
Read offset correction                      : 6
Overread into Lead-In and Lead-Out          : No
Fill up missing offset samples with silence : Yes
Delete leading and trailing silent blocks   : No
Null samples used in CRC calculations       : Yes
Used interface                              : Native Win32 interface for Win NT & 2000
Used output format : Internal WAV Routines
Sample format      : 44.100 Hz; 16 Bit; Stereo
TOC of the extracted CD
     Track |   Start  |  Length  | Start sector | End sector
    ---------------------------------------------------------
        1  |  0:00.00 |  3:55.65 |         0    |    17689
        2  |  3:55.65 |  4:43.49 |     17690    |    38963
Range status and errors
Selected range
     Filename D:\Osieron\Desktop\Test&Copy\Rainbow - Still I'm Sad CD II.wav
     Peak level 96.6 %
     Extraction speed 5.7 X
     Range quality 100.0 %
     Copy CRC 0B5E3DE6
     Copy OK
No errors occurred
AccurateRip summary
Track  1  cannot be verified as accurate (confidence 1)  [F48E9F82], AccurateRip returned [372C77E3]  (AR v2)
Track  2  cannot be verified as accurate (confidence 1)  [E6E9CC09], AccurateRip returned [834668F1]  (AR v2)
No tracks could be verified as accurate
You may have a different pressing from the one(s) in the database
End of status report
Код:
REM ACCURATERIPID 0000dd4e-000252d1-0e020702
REM GENRE "Hard Rock"
REM DATE 2014
REM DISCID 0E020702
REM COMMENT ExactAudioCopy v1.0b3
PERFORMER "Rainbow"
TITLE "Still I'm Sad CD II"
FILE "Rainbow - Still I'm Sad CD II.flac" WAVE
  TRACK 01 AUDIO
    TITLE "Still I'm Sad"
    INDEX 01 00:00:00
  TRACK 02 AUDIO
    TITLE "Temple Of The King"
    INDEX 00 03:54:07
    INDEX 01 03:55:65
Код:
Exact Audio Copy V1.0 beta 3 from 29. August 2011
EAC extraction logfile from 9. March 2014, 22:40
Rainbow / Man On The Silver Mountain CD III
Used drive  : ASUS    DRW-24B3LT   Adapter: 2  ID: 0
Read mode               : Secure
Utilize accurate stream : Yes
Defeat audio cache      : Yes
Make use of C2 pointers : No
Read offset correction                      : 6
Overread into Lead-In and Lead-Out          : No
Fill up missing offset samples with silence : Yes
Delete leading and trailing silent blocks   : No
Null samples used in CRC calculations       : Yes
Used interface                              : Native Win32 interface for Win NT & 2000
Used output format : Internal WAV Routines
Sample format      : 44.100 Hz; 16 Bit; Stereo
TOC of the extracted CD
     Track |   Start  |  Length  | Start sector | End sector
    ---------------------------------------------------------
        1  |  0:00.00 |  4:38.65 |         0    |    20914
        2  |  4:38.65 |  4:32.38 |     20915    |    41352
        3  |  9:11.28 |  2:37.71 |     41353    |    53198
        4  | 11:49.24 |  3:31.21 |     53199    |    69044
Range status and errors
Selected range
     Filename D:\Osieron\Desktop\Test&Copy\Rainbow - Man On The Silver Mountain CD III.wav
     Peak level 96.5 %
     Extraction speed 4.4 X
     Range quality 100.0 %
     Test CRC EA25642B
     Copy CRC EA25642B
     Copy OK
No errors occurred
AccurateRip summary
Track  1  accurately ripped (confidence 1)  [8837B226]  (AR v2)
Track  2  accurately ripped (confidence 1)  [261E086C]  (AR v2)
Track  3  accurately ripped (confidence 1)  [098246FF]  (AR v2)
Track  4  accurately ripped (confidence 1)  [0EE2BAA3]  (AR v2)
All tracks accurately ripped
End of status report
Код:
REM ACCURATERIPID 0002d0c0-000b0bc7-22039804
REM GENRE "Hard Rock"
REM DATE 2014
REM DISCID 22039804
REM COMMENT ExactAudioCopy v1.0b3
PERFORMER "Rainbow"
TITLE "Man On The Silver Mountain CD III"
FILE "Rainbow - Man On The Silver Mountain CD III.flac" WAVE
  TRACK 01 AUDIO
    TITLE "Man On The Silver Mountain"
    INDEX 01 00:00:00
  TRACK 02 AUDIO
    TITLE "Snake Charmer"
    INDEX 00 04:37:07
    INDEX 01 04:38:65
  TRACK 03 AUDIO
    TITLE "If You Don't Like Rock 'N' Roll"
    INDEX 00 09:09:45
    INDEX 01 09:11:28
  TRACK 04 AUDIO
    TITLE "Sixteenth Century Greensleeves"
    INDEX 00 11:47:41
    INDEX 01 11:49:24
Код:
Exact Audio Copy V1.0 beta 3 from 29. August 2011
EAC extraction logfile from 9. March 2014, 22:49
Rainbow / Run With The Wolf CD IV
Used drive  : ASUS    DRW-24B3LT   Adapter: 2  ID: 0
Read mode               : Secure
Utilize accurate stream : Yes
Defeat audio cache      : Yes
Make use of C2 pointers : No
Read offset correction                      : 6
Overread into Lead-In and Lead-Out          : No
Fill up missing offset samples with silence : Yes
Delete leading and trailing silent blocks   : No
Null samples used in CRC calculations       : Yes
Used interface                              : Native Win32 interface for Win NT & 2000
Used output format : Internal WAV Routines
Sample format      : 44.100 Hz; 16 Bit; Stereo
TOC of the extracted CD
     Track |   Start  |  Length  | Start sector | End sector
    ---------------------------------------------------------
        1  |  0:00.00 |  4:08.35 |         0    |    18634
        2  |  4:08.35 |  3:43.01 |     18635    |    35360
Range status and errors
Selected range
     Filename D:\Osieron\Desktop\Test&Copy\Rainbow - Run With The Wolf CD IV.wav
     Peak level 96.6 %
     Extraction speed 3.9 X
     Range quality 100.0 %
     Test CRC B7F6144F
     Copy CRC B7F6144F
     Copy OK
No errors occurred
AccurateRip summary
Track  1  accurately ripped (confidence 1)  [36E5AD63]  (AR v2)
Track  2  accurately ripped (confidence 1)  [C297C303]  (AR v2)
All tracks accurately ripped
End of status report
Код:
REM ACCURATERIPID 0000d2ec-00022ffa-0901d702
REM GENRE "Hard Rock"
REM DATE 2014
REM DISCID 0901D702
REM COMMENT ExactAudioCopy v1.0b3
PERFORMER "Rainbow"
TITLE "Run With The Wolf CD IV"
FILE "Rainbow - Run With The Wolf CD IV.flac" WAVE
  TRACK 01 AUDIO
    TITLE "Starstruck"
    INDEX 01 00:00:00
  TRACK 02 AUDIO
    TITLE "Run With The Wolf"
    INDEX 00 04:06:52
    INDEX 01 04:08:35
Код:
Exact Audio Copy V1.0 beta 3 from 29. August 2011
EAC extraction logfile from 9. March 2014, 23:00
Rainbow / Live CD V
Used drive  : ASUS    DRW-24B3LT   Adapter: 2  ID: 0
Read mode               : Secure
Utilize accurate stream : Yes
Defeat audio cache      : Yes
Make use of C2 pointers : No
Read offset correction                      : 6
Overread into Lead-In and Lead-Out          : No
Fill up missing offset samples with silence : Yes
Delete leading and trailing silent blocks   : No
Null samples used in CRC calculations       : Yes
Used interface                              : Native Win32 interface for Win NT & 2000
Used output format : Internal WAV Routines
Sample format      : 44.100 Hz; 16 Bit; Stereo
TOC of the extracted CD
     Track |   Start  |  Length  | Start sector | End sector
    ---------------------------------------------------------
        1  |  0:00.00 |  4:45.54 |         0    |    21428
        2  |  4:45.54 |  5:07.17 |     21429    |    44470
        3  |  9:52.71 |  7:16.37 |     44471    |    77207
Range status and errors
Selected range
     Filename D:\Osieron\Desktop\Test&Copy\Rainbow - Live CD V.wav
     Peak level 96.6 %
     Extraction speed 4.5 X
     Range quality 100.0 %
     Test CRC 1B30D918
     Copy CRC 1B30D918
     Copy OK
No errors occurred
AccurateRip summary
Track  1  accurately ripped (confidence 1)  [EED9CBA9]  (AR v2)
Track  2  accurately ripped (confidence 1)  [C0762855]  (AR v2)
Track  3  accurately ripped (confidence 1)  [E4782475]  (AR v2)
All tracks accurately ripped
End of status report
Код:
REM ACCURATERIPID 00022f04-000766f0-25040503
REM GENRE "Hard Rock"
REM DATE 2014
REM DISCID 25040503
REM COMMENT ExactAudioCopy v1.0b3
PERFORMER "Rainbow"
TITLE "Live CD V"
FILE "Rainbow - Live CD V.flac" WAVE
  TRACK 01 AUDIO
    TITLE "Kill The King (Live / Edit - On Stage)"
    INDEX 01 00:00:00
  TRACK 02 AUDIO
    TITLE "Man On The Silver Mountain (Live - On Stage)"
    INDEX 01 04:45:54
  TRACK 03 AUDIO
    TITLE "Mistreated (Live / 7' Edit - On Stage)"
    INDEX 00 09:50:72
    INDEX 01 09:52:71
Код:
Exact Audio Copy V1.0 beta 3 from 29. August 2011
EAC extraction logfile from 9. March 2014, 23:11
Rainbow / Long Live Rock 'N' Roll CD VI
Used drive  : ASUS    DRW-24B3LT   Adapter: 2  ID: 0
Read mode               : Secure
Utilize accurate stream : Yes
Defeat audio cache      : Yes
Make use of C2 pointers : No
Read offset correction                      : 6
Overread into Lead-In and Lead-Out          : No
Fill up missing offset samples with silence : Yes
Delete leading and trailing silent blocks   : No
Null samples used in CRC calculations       : Yes
Used interface                              : Native Win32 interface for Win NT & 2000
Used output format : Internal WAV Routines
Sample format      : 44.100 Hz; 16 Bit; Stereo
TOC of the extracted CD
     Track |   Start  |  Length  | Start sector | End sector
    ---------------------------------------------------------
        1  |  0:00.00 |  4:24.09 |         0    |    19808
        2  |  4:24.09 |  3:02.44 |     19809    |    33502
Range status and errors
Selected range
     Filename D:\Osieron\Desktop\Test&Copy\Rainbow - Long Live Rock 'N' Roll CD VI.wav
     Peak level 96.6 %
     Extraction speed 3.8 X
     Range quality 100.0 %
     Test CRC FBC2050A
     Copy CRC FBC2050A
     Copy OK
No errors occurred
AccurateRip summary
Track  1  accurately ripped (confidence 1)  [F3CCFE1F]  (AR v2)
Track  2  accurately ripped (confidence 1)  [00DFA191]  (AR v2)
All tracks accurately ripped
End of status report
Код:
REM ACCURATERIPID 0000d040-00022360-1001be02
REM GENRE "Hard Rock"
REM DATE 2014
REM DISCID 1001BE02
REM COMMENT ExactAudioCopy v1.0b3
PERFORMER "Rainbow"
TITLE "Long Live Rock 'N' Roll CD VI"
FILE "Rainbow - Long Live Rock 'N' Roll CD VI.flac" WAVE
  TRACK 01 AUDIO
    TITLE "Long Live Rock 'N' Roll"
    INDEX 01 00:00:00
  TRACK 02 AUDIO
    TITLE "Sensitive to Light"
    INDEX 00 04:22:26
    INDEX 01 04:24:09
Код:
Exact Audio Copy V1.0 beta 3 from 29. August 2011
EAC extraction logfile from 9. March 2014, 23:19
Rainbow / L.A. Connection CD VII
Used drive  : ASUS    DRW-24B3LT   Adapter: 2  ID: 0
Read mode               : Secure
Utilize accurate stream : Yes
Defeat audio cache      : Yes
Make use of C2 pointers : No
Read offset correction                      : 6
Overread into Lead-In and Lead-Out          : No
Fill up missing offset samples with silence : Yes
Delete leading and trailing silent blocks   : No
Null samples used in CRC calculations       : Yes
Used interface                              : Native Win32 interface for Win NT & 2000
Used output format : Internal WAV Routines
Sample format      : 44.100 Hz; 16 Bit; Stereo
TOC of the extracted CD
     Track |   Start  |  Length  | Start sector | End sector
    ---------------------------------------------------------
        1  |  0:00.00 |  3:43.72 |         0    |    16796
        2  |  3:43.72 |  3:38.51 |     16797    |    33197
Range status and errors
Selected range
     Filename D:\Osieron\Desktop\Test&Copy\Rainbow - L.A. Connection CD VII.wav
     Peak level 96.6 %
     Extraction speed 3.8 X
     Range quality 100.0 %
     Test CRC DA512DD5
     Copy CRC DA512DD5
     Copy OK
No errors occurred
AccurateRip summary
Track  1  accurately ripped (confidence 1)  [D72EC68F]  (AR v2)
Track  2  accurately ripped (confidence 1)  [017F5343]  (AR v2)
All tracks accurately ripped
End of status report
Код:
REM ACCURATERIPID 0000c34b-00020845-0b01ba02
REM GENRE "Hard Rock"
REM DATE 2014
REM DISCID 0B01BA02
REM COMMENT ExactAudioCopy v1.0b3
PERFORMER "Rainbow"
TITLE "L.A. Connection CD VII"
FILE "Rainbow - L.A. Connection CD VII.flac" WAVE
  TRACK 01 AUDIO
    TITLE "La Connection (7' Edit)"
    INDEX 01 00:00:00
  TRACK 02 AUDIO
    TITLE "Lady Of The Lake"
    INDEX 00 03:42:14
    INDEX 01 03:43:72
Код:
Exact Audio Copy V1.0 beta 3 from 29. August 2011
EAC extraction logfile from 9. March 2014, 23:26
Rainbow / Since You Been Gone CD VIII
Used drive  : ASUS    DRW-24B3LT   Adapter: 2  ID: 0
Read mode               : Secure
Utilize accurate stream : Yes
Defeat audio cache      : Yes
Make use of C2 pointers : No
Read offset correction                      : 6
Overread into Lead-In and Lead-Out          : No
Fill up missing offset samples with silence : Yes
Delete leading and trailing silent blocks   : No
Null samples used in CRC calculations       : Yes
Used interface                              : Native Win32 interface for Win NT & 2000
Used output format : Internal WAV Routines
Sample format      : 44.100 Hz; 16 Bit; Stereo
TOC of the extracted CD
     Track |   Start  |  Length  | Start sector | End sector
    ---------------------------------------------------------
        1  |  0:00.00 |  3:20.20 |         0    |    15019
        2  |  3:20.20 |  4:51.74 |     15020    |    36918
Range status and errors
Selected range
     Filename D:\Osieron\Desktop\Test&Copy\Rainbow - Since You Been Gone CD VIII.wav
     Peak level 96.6 %
     Extraction speed 3.9 X
     Range quality 100.0 %
     Test CRC 83528638
     Copy CRC 83528638
     Copy OK
No errors occurred
AccurateRip summary
Track  1  accurately ripped (confidence 1)  [CC451776]  (AR v2)
Track  2  accurately ripped (confidence 1)  [B5B16254]  (AR v2)
All tracks accurately ripped
End of status report
Код:
REM ACCURATERIPID 0000cae3-000225fe-0601ec02
REM GENRE "Hard Rock"
REM DATE 2014
REM DISCID 0601EC02
REM COMMENT ExactAudioCopy v1.0b3
PERFORMER "Rainbow"
TITLE "Since You Been Gone CD VIII"
FILE "Rainbow - Since You Been Gone CD VIII.flac" WAVE
  TRACK 01 AUDIO
    TITLE "Since You Been Gone"
    INDEX 01 00:00:00
  TRACK 02 AUDIO
    TITLE "Bad Girl"
    INDEX 00 03:18:37
    INDEX 01 03:20:20
Код:
Exact Audio Copy V1.0 beta 3 from 29. August 2011
EAC extraction logfile from 9. March 2014, 23:36
Rainbow / Since You Been Gone CD IX
Used drive  : ASUS    DRW-24B3LT   Adapter: 2  ID: 0
Read mode               : Secure
Utilize accurate stream : Yes
Defeat audio cache      : Yes
Make use of C2 pointers : No
Read offset correction                      : 6
Overread into Lead-In and Lead-Out          : No
Fill up missing offset samples with silence : Yes
Delete leading and trailing silent blocks   : No
Null samples used in CRC calculations       : Yes
Used interface                              : Native Win32 interface for Win NT & 2000
Used output format : Internal WAV Routines
Sample format      : 44.100 Hz; 16 Bit; Stereo
TOC of the extracted CD
     Track |   Start  |  Length  | Start sector | End sector
    ---------------------------------------------------------
        1  |  0:00.00 |  3:20.20 |         0    |    15019
        2  |  3:20.20 |  3:44.25 |     15020    |    31844
Range status and errors
Selected range
     Filename D:\Osieron\Desktop\Test&Copy\Rainbow - Since You Been Gone CD IX.wav
     Peak level 96.6 %
     Extraction speed 3.8 X
     Range quality 100.0 %
     Test CRC 8F40B119
     Copy CRC 8F40B119
     Copy OK
No errors occurred
AccurateRip summary
Track  1  accurately ripped (confidence 1)  [061265E8]  (AR v2)
Track  2  accurately ripped (confidence 1)  [117B4804]  (AR v2)
All tracks accurately ripped
End of status report
Код:
REM ACCURATERIPID 0000b711-0001ea88-0601a802
REM GENRE "Hard Rock"
REM DATE 2014
REM DISCID 0601A802
REM COMMENT ExactAudioCopy v1.0b3
PERFORMER "Rainbow"
TITLE "Since You Been Gone CD IX"
FILE "Rainbow - Since You Been Gone CD IX.flac" WAVE
  TRACK 01 AUDIO
    TITLE "Since You Been Gone"
    INDEX 01 00:00:00
  TRACK 02 AUDIO
    TITLE "No Time To Lose"
    INDEX 00 03:18:37
    INDEX 01 03:20:20
Код:
Exact Audio Copy V1.0 beta 3 from 29. August 2011
EAC extraction logfile from 9. March 2014, 23:45
Rainbow / All Night Long CD X
Used drive  : ASUS    DRW-24B3LT   Adapter: 2  ID: 0
Read mode               : Secure
Utilize accurate stream : Yes
Defeat audio cache      : Yes
Make use of C2 pointers : No
Read offset correction                      : 6
Overread into Lead-In and Lead-Out          : No
Fill up missing offset samples with silence : Yes
Delete leading and trailing silent blocks   : No
Null samples used in CRC calculations       : Yes
Used interface                              : Native Win32 interface for Win NT & 2000
Used output format : Internal WAV Routines
Sample format      : 44.100 Hz; 16 Bit; Stereo
TOC of the extracted CD
     Track |   Start  |  Length  | Start sector | End sector
    ---------------------------------------------------------
        1  |  0:00.00 |  3:53.19 |         0    |    17493
        2  |  3:53.19 |  5:13.31 |     17494    |    40999
Range status and errors
Selected range
     Filename D:\Osieron\Desktop\Test&Copy\Rainbow - All Night Long CD X.wav
     Peak level 96.6 %
     Extraction speed 4.0 X
     Range quality 100.0 %
     Test CRC 59433E29
     Copy CRC 59433E29
     Copy OK
No errors occurred
AccurateRip summary
Track  1  accurately ripped (confidence 1)  [3E49E5FE]  (AR v2)
Track  2  accurately ripped (confidence 1)  [9894AF54]  (AR v2)
All tracks accurately ripped
End of status report
Код:
REM ACCURATERIPID 0000e47e-00026925-0c022202
REM GENRE "Hard Rock"
REM DATE 2014
REM DISCID 0C022202
REM COMMENT ExactAudioCopy v1.0b3
PERFORMER "Rainbow"
TITLE "All Night Long CD X"
FILE "Rainbow - All Night Long CD X.flac" WAVE
  TRACK 01 AUDIO
    TITLE "All Night Long"
    INDEX 01 00:00:00
  TRACK 02 AUDIO
    TITLE "Weiss Heim"
    INDEX 00 03:51:36
    INDEX 01 03:53:19
Код:
Exact Audio Copy V1.0 beta 3 from 29. August 2011
EAC extraction logfile from 9. March 2014, 23:51
Rainbow / I Surrender CD XI
Used drive  : ASUS    DRW-24B3LT   Adapter: 2  ID: 0
Read mode               : Secure
Utilize accurate stream : Yes
Defeat audio cache      : Yes
Make use of C2 pointers : No
Read offset correction                      : 6
Overread into Lead-In and Lead-Out          : No
Fill up missing offset samples with silence : Yes
Delete leading and trailing silent blocks   : No
Null samples used in CRC calculations       : Yes
Used interface                              : Native Win32 interface for Win NT & 2000
Used output format : Internal WAV Routines
Sample format      : 44.100 Hz; 16 Bit; Stereo
TOC of the extracted CD
     Track |   Start  |  Length  | Start sector | End sector
    ---------------------------------------------------------
        1  |  0:00.00 |  3:28.03 |         0    |    15602
        2  |  3:28.03 |  3:20.18 |     15603    |    30620
Range status and errors
Selected range
     Filename D:\Osieron\Desktop\Test&Copy\Rainbow - I Surrender CD XI.wav
     Peak level 96.5 %
     Extraction speed 3.8 X
     Range quality 100.0 %
     Test CRC 5A9E1878
     Copy CRC 5A9E1878
     Copy OK
No errors occurred
AccurateRip summary
Track  1  accurately ripped (confidence 1)  [15B09F10]  (AR v1)
Track  2  accurately ripped (confidence 1)  [11D89C4C]  (AR v1)
All tracks accurately ripped
End of status report
Код:
REM ACCURATERIPID 0000b490-0001e0be-05019802
REM GENRE "Hard Rock"
REM DATE 2014
REM DISCID 05019802
REM COMMENT ExactAudioCopy v1.0b3
PERFORMER "Rainbow"
TITLE "I Surrender CD XI"
FILE "Rainbow - I Surrender CD XI.flac" WAVE
  TRACK 01 AUDIO
    TITLE "I Surrender"
    INDEX 01 00:00:00
  TRACK 02 AUDIO
    TITLE "Vielleicht Das Nachster Zeit (Maybe Next Time)"
    INDEX 00 03:26:20
    INDEX 01 03:28:03
Код:
Exact Audio Copy V1.0 beta 3 from 29. August 2011
EAC extraction logfile from 10. March 2014, 0:05
Rainbow / Difficult To Cure CD XII
Used drive  : ASUS    DRW-24B3LT   Adapter: 2  ID: 0
Read mode               : Secure
Utilize accurate stream : Yes
Defeat audio cache      : Yes
Make use of C2 pointers : No
Read offset correction                      : 6
Overread into Lead-In and Lead-Out          : No
Fill up missing offset samples with silence : Yes
Delete leading and trailing silent blocks   : No
Null samples used in CRC calculations       : Yes
Used interface                              : Native Win32 interface for Win NT & 2000
Used output format : Internal WAV Routines
Sample format      : 44.100 Hz; 16 Bit; Stereo
TOC of the extracted CD
     Track |   Start  |  Length  | Start sector | End sector
    ---------------------------------------------------------
        1  |  0:00.00 |  6:00.39 |         0    |    27038
        2  |  6:00.39 |  4:07.73 |     27039    |    45636
        3  | 10:08.37 |  3:12.67 |     45637    |    60103
Range status and errors
Selected range
     Filename D:\Osieron\Desktop\Test&Copy\Rainbow - Difficult To Cure CD XII.wav
     Peak level 96.6 %
     Extraction speed 4.3 X
     Range quality 100.0 %
     Test CRC 0ECC86C6
     Copy CRC 0ECC86C6
     Copy OK
No errors occurred
AccurateRip summary
Track  1  accurately ripped (confidence 1)  [0CD56FEE]  (AR v1)
Track  2  accurately ripped (confidence 1)  [38E9AFEE]  (AR v1)
Track  3  accurately ripped (confidence 1)  [C76694A9]  (AR v1)
All tracks accurately ripped
End of status report
Код:
REM ACCURATERIPID 000206ac-0006952e-14032103
REM GENRE "Hard Rock"
REM DATE 2014
REM DISCID 14032103
REM COMMENT ExactAudioCopy v1.0b3
PERFORMER "Rainbow"
TITLE "Difficult To Cure CD XII"
FILE "Rainbow - Difficult To Cure CD XII.flac" WAVE
  TRACK 01 AUDIO
    TITLE "Difficult To Cure"
    INDEX 01 00:00:00
  TRACK 02 AUDIO
    TITLE "Can't Happen Here (7' Edit)"
    INDEX 00 05:58:56
    INDEX 01 06:00:39
  TRACK 03 AUDIO
    TITLE "Jealous Lover"
    INDEX 00 10:06:54
    INDEX 01 10:08:37
Код:
Exact Audio Copy V1.0 beta 3 from 29. August 2011
EAC extraction logfile from 10. March 2014, 0:13
Rainbow / Magic CD XIII
Used drive  : ASUS    DRW-24B3LT   Adapter: 2  ID: 0
Read mode               : Secure
Utilize accurate stream : Yes
Defeat audio cache      : Yes
Make use of C2 pointers : No
Read offset correction                      : 6
Overread into Lead-In and Lead-Out          : No
Fill up missing offset samples with silence : Yes
Delete leading and trailing silent blocks   : No
Null samples used in CRC calculations       : Yes
Used interface                              : Native Win32 interface for Win NT & 2000
Used output format : Internal WAV Routines
Sample format      : 44.100 Hz; 16 Bit; Stereo
TOC of the extracted CD
     Track |   Start  |  Length  | Start sector | End sector
    ---------------------------------------------------------
        1  |  0:00.00 |  4:09.46 |         0    |    18720
        2  |  4:09.46 |  4:23.20 |     18721    |    38465
Range status and errors
Selected range
     Filename D:\Osieron\Desktop\Test&Copy\Rainbow - Magic CD XIII.wav
     Peak level 96.6 %
     Extraction speed 3.9 X
     Range quality 100.0 %
     Test CRC EF91FA1B
     Copy CRC EF91FA1B
     Copy OK
No errors occurred
AccurateRip summary
Track  1  accurately ripped (confidence 1)  [0706A5B8]  (AR v2)
Track  2  accurately ripped (confidence 1)  [C0EF5CFF]  (AR v2)
All tracks accurately ripped
End of status report
Код:
REM ACCURATERIPID 0000df63-00025509-0a020002
REM GENRE "Hard Rock"
REM DATE 2014
REM DISCID 0A020002
REM COMMENT ExactAudioCopy v1.0b3
PERFORMER "Rainbow"
TITLE "Magic CD XIII"
FILE "Rainbow - Magic CD XIII.flac" WAVE
  TRACK 01 AUDIO
    TITLE "Magic"
    INDEX 01 00:00:00
  TRACK 02 AUDIO
    TITLE "Freedom Fighter"
    INDEX 00 04:07:63
    INDEX 01 04:09:46
Код:
Exact Audio Copy V1.0 beta 3 from 29. August 2011
EAC extraction logfile from 10. March 2014, 0:19
Rainbow / Can't Happen Here CD XIV
Used drive  : ASUS    DRW-24B3LT   Adapter: 2  ID: 0
Read mode               : Secure
Utilize accurate stream : Yes
Defeat audio cache      : Yes
Make use of C2 pointers : No
Read offset correction                      : 6
Overread into Lead-In and Lead-Out          : No
Fill up missing offset samples with silence : Yes
Delete leading and trailing silent blocks   : No
Null samples used in CRC calculations       : Yes
Used interface                              : Native Win32 interface for Win NT & 2000
Used output format : Internal WAV Routines
Sample format      : 44.100 Hz; 16 Bit; Stereo
TOC of the extracted CD
     Track |   Start  |  Length  | Start sector | End sector
    ---------------------------------------------------------
        1  |  0:00.00 |  4:08.61 |         0    |    18660
        2  |  4:08.61 |  3:12.67 |     18661    |    33127
Range status and errors
Selected range
     Filename D:\Osieron\Desktop\Test&Copy\Rainbow - Can't Happen Here CD XIV.wav
     Peak level 96.6 %
     Extraction speed 3.8 X
     Range quality 100.0 %
     Test CRC 060B12D9
     Copy CRC 060B12D9
     Copy OK
No errors occurred
AccurateRip summary
Track  1  accurately ripped (confidence 1)  [0C49E9C2]  (AR v1)
Track  2  accurately ripped (confidence 1)  [46831A2E]  (AR v1)
All tracks accurately ripped
End of status report
Код:
REM ACCURATERIPID 0000ca4d-00021603-0901b902
REM GENRE "Hard Rock"
REM DATE 2014
REM DISCID 0901B902
REM COMMENT ExactAudioCopy v1.0b3
PERFORMER "Rainbow"
TITLE "Can't Happen Here CD XIV"
FILE "Rainbow - Can't Happen Here CD XIV.flac" WAVE
  TRACK 01 AUDIO
    TITLE "Can't Happen Here (7' Edit)"
    INDEX 01 00:00:00
  TRACK 02 AUDIO
    TITLE "Jealous Lover"
    INDEX 00 04:07:03
    INDEX 01 04:08:61
Код:
Exact Audio Copy V1.0 beta 3 from 29. August 2011
EAC extraction logfile from 10. March 2014, 0:26
Rainbow / Stone Cold CD XV
Used drive  : ASUS    DRW-24B3LT   Adapter: 2  ID: 0
Read mode               : Secure
Utilize accurate stream : Yes
Defeat audio cache      : Yes
Make use of C2 pointers : No
Read offset correction                      : 6
Overread into Lead-In and Lead-Out          : No
Fill up missing offset samples with silence : Yes
Delete leading and trailing silent blocks   : No
Null samples used in CRC calculations       : Yes
Used interface                              : Native Win32 interface for Win NT & 2000
Used output format : Internal WAV Routines
Sample format      : 44.100 Hz; 16 Bit; Stereo
TOC of the extracted CD
     Track |   Start  |  Length  | Start sector | End sector
    ---------------------------------------------------------
        1  |  0:00.00 |  5:19.68 |         0    |    23992
        2  |  5:19.68 |  3:51.70 |     23993    |    41387
Range status and errors
Selected range
     Filename D:\Osieron\Desktop\Test&Copy\Rainbow - Stone Cold CD XV.wav
     Peak level 96.6 %
     Extraction speed 4.0 X
     Range quality 100.0 %
     Test CRC 1FA6B0CC
     Copy CRC 1FA6B0CC
     Copy OK
No errors occurred
AccurateRip summary
Track  1  accurately ripped (confidence 1)  [EE41BB1A]  (AR v2)
Track  2  accurately ripped (confidence 1)  [EAEB8558]  (AR v2)
All tracks accurately ripped
End of status report
Код:
REM ACCURATERIPID 0000ff65-0002a077-08022702
REM GENRE "Hard Rock"
REM DATE 2014
REM DISCID 08022702
REM COMMENT ExactAudioCopy v1.0b3
PERFORMER "Rainbow"
TITLE "Stone Cold CD XV"
FILE "Rainbow - Stone Cold CD XV.flac" WAVE
  TRACK 01 AUDIO
    TITLE "Stone Cold"
    INDEX 01 00:00:00
  TRACK 02 AUDIO
    TITLE "Rock Fever"
    INDEX 00 05:18:10
    INDEX 01 05:19:68
Код:
Exact Audio Copy V1.0 beta 3 from 29. August 2011
EAC extraction logfile from 10. March 2014, 0:32
Rainbow / Death Alley Driver CD XVI
Used drive  : ASUS    DRW-24B3LT   Adapter: 2  ID: 0
Read mode               : Secure
Utilize accurate stream : Yes
Defeat audio cache      : Yes
Make use of C2 pointers : No
Read offset correction                      : 6
Overread into Lead-In and Lead-Out          : No
Fill up missing offset samples with silence : Yes
Delete leading and trailing silent blocks   : No
Null samples used in CRC calculations       : Yes
Used interface                              : Native Win32 interface for Win NT & 2000
Used output format : Internal WAV Routines
Sample format      : 44.100 Hz; 16 Bit; Stereo
TOC of the extracted CD
     Track |   Start  |  Length  | Start sector | End sector
    ---------------------------------------------------------
        1  |  0:00.00 |  4:44.28 |         0    |    21327
        2  |  4:44.28 |  3:16.18 |     21328    |    36045
Range status and errors
Selected range
     Filename D:\Osieron\Desktop\Test&Copy\Rainbow - Death Alley Driver CD XVI.wav
     Peak level 96.6 %
     Extraction speed 3.9 X
     Range quality 100.0 %
     Test CRC 8B70BB33
     Copy CRC 8B70BB33
     Copy OK
No errors occurred
AccurateRip summary
Track  1  accurately ripped (confidence 1)  [85C901EE]  (AR v1)
Track  2  accurately ripped (confidence 1)  [F919AB65]  (AR v1)
All tracks accurately ripped
End of status report
Код:
REM ACCURATERIPID 0000e01e-00024d0b-1201e002
REM GENRE "Hard Rock"
REM DATE 2014
REM DISCID 1201E002
REM COMMENT ExactAudioCopy v1.0b3
PERFORMER "Rainbow"
TITLE "Death Alley Driver CD XVI"
FILE "Rainbow - Death Alley Driver CD XVI.flac" WAVE
  TRACK 01 AUDIO
    TITLE "Death Alley Driver"
    INDEX 01 00:00:00
  TRACK 02 AUDIO
    TITLE "Tite Squeeze"
    INDEX 00 04:42:45
    INDEX 01 04:44:28
Код:
Exact Audio Copy V1.0 beta 3 from 29. August 2011
EAC extraction logfile from 10. March 2014, 0:40
Rainbow / Street Of Dreams CD XVII
Used drive  : ASUS    DRW-24B3LT   Adapter: 2  ID: 0
Read mode               : Secure
Utilize accurate stream : Yes
Defeat audio cache      : Yes
Make use of C2 pointers : No
Read offset correction                      : 6
Overread into Lead-In and Lead-Out          : No
Fill up missing offset samples with silence : Yes
Delete leading and trailing silent blocks   : No
Null samples used in CRC calculations       : Yes
Used interface                              : Native Win32 interface for Win NT & 2000
Used output format : Internal WAV Routines
Sample format      : 44.100 Hz; 16 Bit; Stereo
TOC of the extracted CD
     Track |   Start  |  Length  | Start sector | End sector
    ---------------------------------------------------------
        1  |  0:00.00 |  4:28.34 |         0    |    20133
        2  |  4:28.34 |  2:40.33 |     20134    |    32166
        3  |  7:08.67 |  4:35.05 |     32167    |    52796
Range status and errors
Selected range
     Filename D:\Osieron\Desktop\Test&Copy\Rainbow - Street Of Dreams CD XVII.wav
     Peak level 96.6 %
     Extraction speed 4.2 X
     Range quality 100.0 %
     Test CRC 2676A248
     Copy CRC 2676A248
     Copy OK
No errors occurred
AccurateRip summary
Track  1  accurately ripped (confidence 1)  [4F3A5CC2]  (AR v2)
Track  2  accurately ripped (confidence 1)  [A1004B59]  (AR v2)
Track  3  accurately ripped (confidence 1)  [A6D91927]  (AR v2)
All tracks accurately ripped
End of status report
Код:
REM ACCURATERIPID 00019a8a-00054f36-1202bf03
REM GENRE "Hard Rock"
REM DATE 2014
REM DISCID 1202BF03
REM COMMENT ExactAudioCopy v1.0b3
PERFORMER "Rainbow"
TITLE "Street Of Dreams CD XVII"
FILE "Rainbow - Street Of Dreams CD XVII.flac" WAVE
  TRACK 01 AUDIO
    TITLE "Street Of Dreams"
    INDEX 01 00:00:00
  TRACK 02 AUDIO
    TITLE "Anybody There"
    INDEX 00 04:26:51
    INDEX 01 04:28:34
  TRACK 03 AUDIO
    TITLE "Power (Live At The Convention Center, San Antonio)"
    INDEX 00 07:07:09
    INDEX 01 07:08:67
Код:
Exact Audio Copy V1.0 beta 3 from 29. August 2011
EAC extraction logfile from 10. March 2014, 0:49
Rainbow / Can't Let You Go CD XVIII
Used drive  : ASUS    DRW-24B3LT   Adapter: 2  ID: 0
Read mode               : Secure
Utilize accurate stream : Yes
Defeat audio cache      : Yes
Make use of C2 pointers : No
Read offset correction                      : 6
Overread into Lead-In and Lead-Out          : No
Fill up missing offset samples with silence : Yes
Delete leading and trailing silent blocks   : No
Null samples used in CRC calculations       : Yes
Used interface                              : Native Win32 interface for Win NT & 2000
Used output format : Internal WAV Routines
Sample format      : 44.100 Hz; 16 Bit; Stereo
TOC of the extracted CD
     Track |   Start  |  Length  | Start sector | End sector
    ---------------------------------------------------------
        1  |  0:00.00 |  3:27.66 |         0    |    15590
        2  |  3:27.66 |  5:26.10 |     15591    |    40050
        3  |  8:54.01 |  4:19.04 |     40051    |    59479
Range status and errors
Selected range
     Filename D:\Osieron\Desktop\Test&Copy\Rainbow - Can't Let You Go CD XVIII.wav
     Peak level 96.6 %
     Extraction speed 4.2 X
     Range quality 100.0 %
     Test CRC 224F395D
     Copy CRC 224F395D
     Copy OK
No errors occurred
AccurateRip summary
Track  1  accurately ripped (confidence 1)  [1860FB14]  (AR v2)
Track  2  accurately ripped (confidence 1)  [C44E8475]  (AR v2)
Track  3  accurately ripped (confidence 1)  [B4936581]  (AR v2)
All tracks accurately ripped
End of status report
Код:
REM ACCURATERIPID 0001c1b2-0005f088-1b031903
REM GENRE "Hard Rock"
REM DATE 2014
REM DISCID 1B031903
REM COMMENT ExactAudioCopy v1.0b3
PERFORMER "Rainbow"
TITLE "Can't Let You Go CD XVIII"
FILE "Rainbow - Can't Let You Go CD XVIII.flac" WAVE
  TRACK 01 AUDIO
    TITLE "Can't Let You Go (7' Edit)"
    INDEX 01 00:00:00
  TRACK 02 AUDIO
    TITLE "All Night Long (Live At David's Hall, Cardiff)"
    INDEX 00 03:26:08
    INDEX 01 03:27:66
  TRACK 03 AUDIO
    TITLE "Stranded (Live At David's Hall, Cardiff)"
    INDEX 00 08:52:18
    INDEX 01 08:54:01
Код:
Exact Audio Copy V1.0 beta 3 from 29. August 2011
EAC extraction logfile from 10. March 2014, 0:59
Rainbow / Bad Girl CD XIX
Used drive  : ASUS    DRW-24B3LT   Adapter: 2  ID: 0
Read mode               : Secure
Utilize accurate stream : Yes
Defeat audio cache      : Yes
Make use of C2 pointers : No
Read offset correction                      : 6
Overread into Lead-In and Lead-Out          : No
Fill up missing offset samples with silence : Yes
Delete leading and trailing silent blocks   : No
Null samples used in CRC calculations       : Yes
Used interface                              : Native Win32 interface for Win NT & 2000
Used output format : Internal WAV Routines
Sample format      : 44.100 Hz; 16 Bit; Stereo
TOC of the extracted CD
     Track |   Start  |  Length  | Start sector | End sector
    ---------------------------------------------------------
        1  |  0:00.00 |  4:52.49 |         0    |    21948
        2  |  4:52.49 |  6:01.59 |     21949    |    49082
        3  | 10:54.33 |  8:16.60 |     49083    |    86342
Range status and errors
Selected range
     Filename D:\Osieron\Desktop\Test&Copy\Rainbow - Bad Girl CD XIX.wav
     Peak level 96.6 %
     Extraction speed 4.6 X
     Range quality 100.0 %
     Test CRC 1BE78AAF
     Copy CRC 1BE78AAF
     Copy OK
No errors occurred
AccurateRip summary
Track  1  accurately ripped (confidence 1)  [74101C9F]  (AR v1)
Track  2  accurately ripped (confidence 1)  [4CDFB3CA]  (AR v1)
Track  3  accurately ripped (confidence 1)  [F4434835]  (AR v1)
All tracks accurately ripped
End of status report
Код:
REM ACCURATERIPID 000266bf-00082fc8-22047f03
REM GENRE "Hard Rock"
REM DATE 2014
REM DISCID 22047F03
REM COMMENT ExactAudioCopy v1.0b3
PERFORMER "Rainbow"
TITLE "Bad Girl CD XIX"
FILE "Rainbow - Bad Girl CD XIX.flac" WAVE
  TRACK 01 AUDIO
    TITLE "Bad Girl"
    INDEX 01 00:00:00
  TRACK 02 AUDIO
    TITLE "Spotlight Kid (Live At Budokan, Tokyo)"
    INDEX 00 04:50:66
    INDEX 01 04:52:49
  TRACK 03 AUDIO
    TITLE "Man On The Silver Mountain (Live)"
    INDEX 00 10:52:49
    INDEX 01 10:54:33
--
Download / Скачать

Хотите скачать бесплатно? Зарегистрируйтесь на сайте (ссылка на регистрацию). Pirat.ca - самый быстрый торрент трекер в рунете!

Как скачивать  ·   Что такое торрент  ·   Рейтинг и ограничения

Показать сообщения:    
Ответить на тему

Текущее время: Сегодня 04:11

Часовой пояс: GMT + 4



Вы не можете начинать темы
Вы не можете отвечать на сообщения
Вы не можете редактировать свои сообщения
Вы не можете удалять свои сообщения
Вы не можете голосовать в опросах
Вы не можете прикреплять файлы к сообщениям
Вы не можете скачивать файлы

▼ Вниз