ML
     
  Уважаемый Гость!
Вы можете поддержать проект и зарегистрироваться у наших партнеров - онлайн-стратегия MyLands. При регистрации в игре Вы получите код, который сможете активировать после регистрации на pirat.ca и получить 1000 дублонов.

Ваш код:
4a782a7792afd0eef13faed0c38d9aac6011c5da
 
     

Малавита / The Family (Люк Бессон / Luc Besson) [2013 г., криминал, комедия, боевик,, BDRip] Dub [Лицензия BD CEE] + Original (Eng) + Sub (Rus, Eng)

Ответить на тему
 
Автор
Сообщение

Пост 06-Янв-2017 18:47

[Q] 

somik

-Малавита / The Family-- Производство: США, Франция
Год выпуска: 2013 г.
Жанр: криминал, комедия, боевик,
Продолжительность: 01:51:33
Мировая премьера: 10 сентября 2013
Российская премьера: 19 сентября 2013, «Парадиз»
Дата выхода DVD: 19 ноября 2013, «Парадиз / Активижен»
Дата выхода Blu-Ray: 3 декабря 2013, «Парадиз / Активижен»
Перевод: Профессиональный (полное дублирование) [Лицензия BD CEE]
Оригинальный аудиопоток: английский
Режиссер: Люк Бессон / Luc Besson-В ролях: Роберт Де Ниро, Мишель Пфайффер, Томми Ли Джонс, Диана Агрон, Джон Фреда, Рикардо Сорберо, Доминик Кьянезе, Дэвид Белль, Джон Д’Лео, Джино Кафарелли
Роли дублировали: Никита Прозоровский, Людмила Шувалова, Валерий Сторожик, Александра Остроухова, Вадим Медведев, ...-Описание: Что вы знаете о своих соседях? Особенно о тех, которые заявляются среди ночи… Так, однажды на тихой улочке провинциального французского городка поселился писатель по фамилии Блейк, со своим семейством и собакой Малавитой. На этом многовековое спокойствие города закончилось. Почему сгорел местный супермаркет? Чем рискует медлительный водопроводчик? Что лежит в рюкзаке у милого парня в бежевых бриджах?
Кто бы мог представить, что на самом деле мистер Блейк — бывший глава мафии, которого власти прячут здесь от преследования. И вот в городок приезжают люди «Коза Ностры»…-
Качество видео: BDRip
Контейнер: AVI
Видео кодек: XviD
Аудио кодек: AC3
Видео: 720x304 (2.37:1), 23.976 fps, XviD MPEG-4, 1899 kbps avg, 0.36 bit/pixel
Аудио: 48 kHz, AC3 Dolby Digital, 3/2 (L,C,R,l,r) ch, 448 kbps
Аудио #2: 48 kHz, AC3 Dolby Digital, 3/2 (L,C,R,l,r) + LFE ch, 448 kbps
Cубтитры: русские, английские
Формат субтитров: softsub (SRT)
Доп. информация о субтитрах: внешние
Фильм снят по мотивам романа Тонино Бенаквисты «Малавита» (Malavita, 2004).
В киноклубе Фреду предложили посмотреть и обсудить фильм «Славные парни» (1990), в котором Роберт Де Ниро также играл одну из главных ролей.
Во время съемок сцены, в которой Бэлль избивает парней теннисной ракеткой, ракетка сломалась, и Дианна Агрон, как и вся команда, не смогли сдержать смех.
Фильм сменил несколько названий: «The Blakes», «Badfellas», «Malavita».
Люк Бессон обращался к Дианне Агрон исключительно по имени ее персонажа — «Бэлль», но когда он назвал её так вне съемок, Дианна не отзывалась, что очень смешило Люка.
Сцену в школьном кафетерии пришлось переснимать очень много раз, потому что вся команда смеялась из-за неких проблем с гардеробом Дианны Агрон.
Съёмки проходили в период с августа по октябрь 2012 года, в Нормандии, Гасе, Ле Сапе, Нью-Йорке и на киностудии Cité du Cinéma
Семья
Под впечатлением от фильма уже два дня! Он шикарный. Правда без прочтения романа многое не понятно, но в этом особая прелесть для людей читающих. Актерский состав приятно удивил, Де Ниро как всегда неподражаем в своем амплуа мафиози, другого актера и не представляла в этой роли. Особо хочется отметить название фильма, не то как его интерпритировали русские прокатчики, а оригинальное -«Семья». Именно в названии вся суть фильма. То как сплочены друг с другом члены этой семьи, вызывает чувство уважения и желание подражать. У них нет такого что каждый сам за себя-они команда, а это жуть как важно для любой семьи, не только для тех кто бежит и скрывается. Побольше бы такой сплоченности и доверия друг к другу. Жена знает мужа на два шага вперед и всегда поддерживает его, дети помогают родителям, может и немного сказочными покажутся их действия в конце фильма, но чему удивляться-они выросли в среде убийств и массовых разборок.
Добрый фильм, все убийства не выглядят устрашающими и ужасными, а как следствие неправильного поведения, того кто попал под пулю мести или правосудия.
Спасибо создателям фильма за приятные минуты подаренные просмотром!
10 из 10
Общее
Полное имя : F:\Малавита.The Family.2013.BDRip.Лицензия.[pirat.ca]\The Family.2013.BDRip.[pirat.ca].avi
Формат : AVI
Формат/Информация : Audio Video Interleave
Профиль формата : OpenDML
Размер файла : 2,18 Гбайт
Продолжительность : 1 ч. 51 м.
Общий поток : 2802 Кбит/сек
Программа кодирования : VirtualDubMod 1.5.10.2 (build 2540/release)
Видео
Идентификатор : 0
Формат : MPEG-4 Visual
Профиль формата : Advanced [email protected]
Параметр BVOP формата : 1
Параметр QPel формата : Нет
Параметр GMC формата : Без точки перехода
Параметр матрицы формата : Выборочная
Идентификатор кодека : XVID
Идентификатор кодека/Подсказка : XviD
Продолжительность : 1 ч. 51 м.
Битрейт : 1889 Кбит/сек
Ширина : 720 пикселей
Высота : 304 пикселя
Соотношение сторон : 2,35:1
Частота кадров : 23,976 (24000/1001) кадра/сек
Цветовое пространство : YUV
Субдискретизация насыщенности : 4:2:0
Битовая глубина : 8 бит
Тип развёртки : Прогрессивная
Метод сжатия : С потерями
Бит/(Пиксели*Кадры) : 0.360
Размер потока : 1,47 Гбайт (67%)
Библиотека кодирования : XviD 65
Аудио #1
Идентификатор : 1
Формат : AC-3
Формат/Информация : Audio Coding 3
Расширение режима : CM (complete main)
Параметр Endianness формата : Big
Идентификатор кодека : 2000
Продолжительность : 1 ч. 51 м.
Вид битрейта : Постоянный
Битрейт : 448 Кбит/сек
Каналы : 6 каналов
Channel(s)_Original : 5 каналов
Расположение каналов : Front: L C R, Side: L R
Частота : 48,0 КГц
Частота кадров : 31,250 кадров/сек (1536 spf)
Метод сжатия : С потерями
Размер потока : 357 Мбайт (16%)
Выравнивание : Разделение по промежуткам
Продолжительность промежутка : 42 мс. (1,00 видеокадр)
Время предзагрузки промежутка : 500 мс.
Аудио #2
Идентификатор : 2
Формат : AC-3
Формат/Информация : Audio Coding 3
Расширение режима : CM (complete main)
Параметр Endianness формата : Big
Идентификатор кодека : 2000
Продолжительность : 1 ч. 51 м.
Вид битрейта : Постоянный
Битрейт : 448 Кбит/сек
Каналы : 6 каналов
Расположение каналов : Front: L C R, Side: L R, LFE
Частота : 48,0 КГц
Частота кадров : 31,250 кадров/сек (1536 spf)
Метод сжатия : С потерями
Размер потока : 357 Мбайт (16%)
Выравнивание : Разделение по промежуткам
Продолжительность промежутка : 42 мс. (1,00 видеокадр)
Время предзагрузки промежутка : 500 мс.
Download / Скачать

Хотите скачать бесплатно? Зарегистрируйтесь на сайте (ссылка на регистрацию). Pirat.ca - самый быстрый торрент трекер в рунете!

Как скачивать  ·   Что такое торрент  ·   Рейтинг и ограничения

alex11959

Флибустьер

Пост 08-Янв-2017 00:15 (спустя 1 день 5 часов)

[Q] 

Супер! !!!!!!!!!!!!!!!!!!!!!
[Профиль]  [ЛС] 

RedHawk

Флибустьер

Пост 12-Янв-2017 13:53 (спустя 4 дня)

[Q] 

Классный фильм, особенно радует удачный саундтрек к отдельным сценам (выход киллеров из поезда). Стоит смотреть.
[Профиль]  [ЛС] 

xzxscorpxzx

Легенда

Пост 22-Янв-2017 03:40 (спустя 9 дней)

[Q] 

качаю,посмотрим)
[Профиль]  [ЛС] 

Hkg84

Морской Волк

Пост 24-Янв-2017 16:36 (спустя 2 дня 12 часов)

[Q] 

Попкорн и унылая бездарность и ниочём.
[Профиль]  [ЛС] 
Показать сообщения:    
Ответить на тему

Текущее время: Сегодня 20:55

Часовой пояс: GMT + 4



Вы не можете начинать темы
Вы не можете отвечать на сообщения
Вы не можете редактировать свои сообщения
Вы не можете удалять свои сообщения
Вы не можете голосовать в опросах
Вы не можете прикреплять файлы к сообщениям
Вы не можете скачивать файлы

▼ Вниз