Уважаемый Гость!
Вы можете поддержать проект и зарегистрироваться у наших партнеров - онлайн-стратегия MyLands. При регистрации в игре Вы получите код, который сможете активировать после регистрации на pirat.ca и получить 1000 дублонов.

Ваш код:
a37d002a0ba805e99187d282e6e14d1e2e86014c
 
     

Война против всех / War on Everyone (Джон Майкл МакДона / John Michael McDonagh) [2016 г., комедия, WEB-DLRip] Dub [Чистый звук]

Ответить на тему
 
Автор
Сообщение

Пост 07-Янв-2017 11:00

[Q] 

aleksey99

--Война против всех / War on Everyone--«They're gonna kick your ass and get away with it»-- Производство: Великобритания, Head Gear Films, Kreo Films FZ, Metrol Technology
Год выпуска: 2016 г.
Жанр: комедия
Продолжительность: 01:38:04--Мировая премьера: 12 февраля 2016
Российская премьера: 3 ноября 2016, «Артхаус»--Перевод: Профессиональный (полное дублирование) [Чистый звук]--Режиссер: Джон Майкл МакДона / John Michael McDonagh--В ролях: Александр Скарсгард, Тесса Томпсон, Тео Джеймс, Стефани Сигман, Малкольм Баррет, Майкл Пенья, Тейт Флетчер, Калеб Лэндри Джонс, Пол Райзер, Кит Джардин--Описание: Двое коррумпированных копов-отморозков из Нью-Мексико прессуют всех, кто попадается им под руку… или под колеса авто. Судьба подкидывает им шанс срубить целый миллион долларов, но на смачный куш также претендует эксцентричный английский лорд не без странных пристрастий. В борьбе за заслуженный улов напарники случайно узнают о стрёмных секретах красавчика-лорда и впрягаются нести возмездие. Плохим копам не терпится попробовать нечто совсем новое — борьбу за справедливость… ну, за то, как они понимают справедливость.-- --Качество видео: WEB-DLRip
Контейнер: AVI
Видео кодек: XviD
Аудио кодек: AC3
Видео: 720x304 (2.37:1), 24 fps, XviD build 50 ~1733 kbps avg, 0.33 bit/pixel
Аудио: 48 kHz, AC3 Dolby Digital, 2/0 (L,R) ch, ~384 kbps
Cубтитры: отсутствуют.
Общее
Полное имя : H:\Torrent2\VoYna.ProTIFF.VseX.2O16.D.WEB-DLRip.14OOMB.avi
Формат : AVI
Формат/Информация : Audio Video Interleave
Размер файла : 1,46 Гбайт
Продолжительность : 1 ч. 38 м.
Общий поток : 2127 Кбит/сек
Программа кодирования : VirtualDubMod 1.5.10.2 (build 2540/release)
Библиотека кодирования : VirtualDubMod build 2540/release
Видео
Идентификатор : 0
Формат : MPEG-4 Visual
Профиль формата : Advanced [email protected]
Параметр BVOP формата : 2
Параметр QPel формата : Нет
Параметр GMC формата : Без точки перехода
Параметр матрицы формата : Default (MPEG)
Идентификатор кодека : XVID
Идентификатор кодека/Подсказка : XviD
Продолжительность : 1 ч. 38 м.
Битрейт : 1734 Кбит/сек
Ширина : 720 пикселей
Высота : 304 пикселя
Соотношение сторон : 2,35:1
Частота кадров : 24,000 кадра/сек
Цветовое пространство : YUV
Субдискретизация насыщенности : 4:2:0
Битовая глубина : 8 бит
Тип развёртки : Прогрессивная
Метод сжатия : С потерями
Бит/(Пиксели*Кадры) : 0.330
Размер потока : 1,19 Гбайт (82%)
Библиотека кодирования : XviD 1.2.1 (UTC 2008-12-04)
Аудио
Идентификатор : 1
Формат : AC-3
Формат/Информация : Audio Coding 3
Расширение режима : CM (complete main)
Параметр Endianness формата : Big
Идентификатор кодека : 2000
Продолжительность : 1 ч. 38 м.
Вид битрейта : Постоянный
Битрейт : 384 Кбит/сек
Каналы : 2 канала
Расположение каналов : Front: L R
Частота : 48,0 КГц
Частота кадров : 31,250 кадров/сек (1536 spf)
Метод сжатия : С потерями
Размер потока : 269 Мбайт (18%)
Выравнивание : Разделение по промежуткам
Продолжительность промежутка : 42 мс. (1,00 видеокадр)
Время предзагрузки промежутка : 500 мс.
Трейлер
Download / Скачать

Хотите скачать бесплатно? Зарегистрируйтесь на сайте (ссылка на регистрацию). Pirat.ca - самый быстрый торрент трекер в рунете!

Как скачивать  ·   Что такое торрент  ·   Рейтинг и ограничения

alex11959

Гроза морей

Пост 08-Янв-2017 00:13 (спустя 13 часов)

[Q] 

Спасибо!!! !!!!!!!!!!!!!!
[Профиль]  [ЛС] 

demon-292

Корсар

Пост 08-Янв-2017 12:36 (спустя 12 часов)

[Q] 

Лови бочку Спасибо!!!!!!
[Профиль]  [ЛС] 

dermat2

Корсар

Пост 08-Янв-2017 20:05 (спустя 7 часов)

[Q] 

Досмотреть до конца не смог. Странно, что на кинопоиске почти 7.
[Профиль]  [ЛС] 

aka_johnny

Флибустьер

Пост 09-Янв-2017 01:02 (спустя 4 часа)

[Q] 

Спасибо!!!
Лови бочку
[Профиль]  [ЛС] 

baltimor30

Корсар

Пост 09-Янв-2017 15:25 (спустя 14 часов)

[Q] 

в принципе фильм не ничего, но 2 раз смотреть не заставишь
[Профиль]  [ЛС] 

dronofill

Корсар

Пост 09-Янв-2017 22:42 (спустя 7 часов)

[Q] 

согласен, посмотреть от безделья можно ... На любителя

_________________
Мира и добра)
[Профиль]  [ЛС] 

mazoga

Штурман

Пост 10-Янв-2017 22:33 (спустя 23 часа)

[Q] 

Что можно сказать об этом фильме... Это тупой американский боевик с комедийными вставками. Как бы фильм смотрится сложно, местами от не очень хорошей игры актеров, а местами от того, что сюжет настолько сырой, что деревья, с которых сделаны листы, на которых он написан, до сих пор растут в лесу и не подозревают, что их дни сочтены.
[Профиль]  [ЛС] 

tvskit

Гроза морей

Пост 12-Янв-2017 22:36 (спустя 2 дня)

[Q] 

Так и смог себя заставить досмотреть до конца.

_________________
[Профиль]  [ЛС] 

raul kurochka

Флибустьер

Пост 13-Янв-2017 00:36 (спустя 1 час 59 минут)

[Q] 

782183фильм смотрится сложно, местами от не очень хорошей игры актеров
...а чего вы ожидали? От второпланового Пеньи и Скарсгарда, у которого из успешных работ только главная роль в мини-сериале "Generation KILL"?)))
p.s. "этюд" про сценарий и деревья - "ЭТАПЯТЬ" bj
все-равно забираю)
Автору благодарочка:
Лови бочку

_________________
...ЧО ТАКОЙ СЕРЬЕЗНЫЙ???
[Профиль]  [ЛС] 

KpoT

Штурман

Пост 17-Янв-2017 22:26 (спустя 4 дня)

[Q] 

Спасибо, посмотрим!
[Профиль]  [ЛС] 

колотов

Шкипер

Пост 18-Янв-2017 11:45 (спустя 13 часов)

[Q] 

Я не выдержал. 30 минут и выключил. Бред какой то...
[Профиль]  [ЛС] 

ТАЛИ

Флибустьер

Пост 29-Янв-2017 23:38 (спустя 11 дней)

[Q] 

А я обожаю и Джона МакДона и его брата Майкла. Мне нравится придурковатая философичность их фильмов. Хотя конкретно в этом фильме мне этого и не хватило... Наверно зря место действия в Америку перенесли. Все-таки Ирландия более атмосферно смотрится в МакДоновских картинах - флегматичные ирландцы, величественнаяя картинка и зашкаливающий цинизмом и отмороженностью сюжет... Нет, Америка им определенно не идет. Но все равно фильм посмотрела с удовольствием.
[Профиль]  [ЛС] 

Кристина119

Флибустьер

Пост 03-Фев-2017 22:42 (спустя 4 дня)

[Q] 

Как по мне полная х...., но за труды спасибо
[Профиль]  [ЛС] 

clark

Корсар

Пост 03-Фев-2017 23:12 (спустя 29 минут)

[Q] 

супер спасибо

_________________
Последним смеётся тот, кто стреляет первым.
[Профиль]  [ЛС] 

Пост 21-Фев-2017 09:04 (спустя 17 дней)

Топик был перенесен из форума Новинки (HD|DVD|BD| TV|SAT|PDTV| - Rips) в форум Фильмы 2010 - 2016 г.г.
aleksey99
 

Sharifulla

Корсар

Пост 21-Фев-2017 23:19 (спустя 18 дней)

[Q] 

Спасибо автор за труды твои
[Профиль]  [ЛС] 

hotabych_ru32

Шкипер

Пост 05-Апр-2017 14:07 (спустя 1 месяц 11 дней)

[Q] 

впечатлений нет на один раз время убить
[Профиль]  [ЛС] 
Показать сообщения:    
Ответить на тему

Текущее время: Сегодня 08:35

Часовой пояс: GMT + 4



Вы не можете начинать темы
Вы не можете отвечать на сообщения
Вы не можете редактировать свои сообщения
Вы не можете удалять свои сообщения
Вы не можете голосовать в опросах
Вы не можете прикреплять файлы к сообщениям
Вы не можете скачивать файлы

▼ Вниз