ML
     
  Уважаемый Гость!
Вы можете поддержать проект и зарегистрироваться у наших партнеров - онлайн-стратегия MyLands. При регистрации в игре Вы получите код, который сможете активировать после регистрации на pirat.ca и получить 1000 дублонов.

Ваш код:
ff829d405037349b0105051f5c3ab8d56526713c
 
     

(Progressive, Hard Rock) Magnum - Sacred Blood, ''Divine'' Lies - 2016 [FLAC, image +.cue, lossless]

Ответить на тему
 
Автор
Сообщение

Пост 07-Янв-2017 14:20

[Q] 

sergej644

-Magnum - Sacred Blood, ''Divine'' Lies--
Год издания: 2016
Страна: UK
Жанр: Progressive, Hard Rock
Продолжительность: 00:54:26-Лейбл издания: SPV
Страна-выпуска диска: Germany
Номер по каталогу: SPV268972CD-Формат: FLAC
Битрейт аудио: Lossless
Тип рипа: image +.cue
Наличие сканов в содержимом раздачи: да
-

01.Sacred Blood, 'Divine' Lies(6:42)
02.Crazy Old Mothers(5:48)
03.Gypsy Queen(4:30)
04.Princess In Rags (The Cult)(5:27)
05.Your Dreams Won't Die(5:26)
06.Afraid Of The Night(4:32)
07.A Forgotten Conversation(4:56)
08.Quiet Rhapsody(5:40)
09.Twelve Men Wise And Just(6:19)
10.Don't Cry Baby(5:06)
-
Код:
Exact Audio Copy V1.0 beta 3 from 29. August 2011
EAC extraction logfile from 11. March 2016, 20:47
Magnum / Sacred Blood, "Divine" Lies
Used drive  : MATSHITABD-CMB UJ242AS   Adapter: 0  ID: 1
Read mode               : Secure
Utilize accurate stream : Yes
Defeat audio cache      : Yes
Make use of C2 pointers : No
Read offset correction                      : 103
Overread into Lead-In and Lead-Out          : No
Fill up missing offset samples with silence : Yes
Delete leading and trailing silent blocks   : No
Null samples used in CRC calculations       : Yes
Used interface                              : Installed external ASPI interface
Used output format              : User Defined Encoder
Selected bitrate                : 1024 kBit/s
Quality                         : High
Add ID3 tag                     : Yes
Command line compressor         : C:\Program Files (x86)\Exact Audio Copy\Flac\flac.exe
Additional command line options : -V -8 -T "Date=%year%" -T "Genre=%genre%" %source%
TOC of the extracted CD
     Track |   Start  |  Length  | Start sector | End sector
    ---------------------------------------------------------
        1  |  0:00.00 |  6:41.53 |         0    |    30127
        2  |  6:41.53 |  5:48.27 |     30128    |    56254
        3  | 12:30.05 |  4:29.44 |     56255    |    76473
        4  | 16:59.49 |  5:27.19 |     76474    |   101017
        5  | 22:26.68 |  5:25.65 |    101018    |   125457
        6  | 27:52.58 |  4:32.14 |    125458    |   145871
        7  | 32:24.72 |  4:56.28 |    145872    |   168099
        8  | 37:21.25 |  5:40.03 |    168100    |   193602
        9  | 43:01.28 |  6:18.72 |    193603    |   222024
       10  | 49:20.25 |  5:05.51 |    222025    |   244950
Range status and errors
Selected range
     Filename C:\EACrip\Magnum - Sacred Blood, ''Divine'' Lies.wav
     Peak level 99.6 %
     Extraction speed 2.5 X
     Range quality 100.0 %
     Test CRC 09CF95FF
     Copy CRC 09CF95FF
     Copy OK
No errors occurred
AccurateRip summary
Track  1  cannot be verified as accurate (confidence 1)  [FA13F5B1], AccurateRip returned [2B4ED460]  (AR v2)
Track  2  cannot be verified as accurate (confidence 1)  [86E4F654], AccurateRip returned [C335D436]  (AR v2)
Track  3  cannot be verified as accurate (confidence 1)  [13189294], AccurateRip returned [F5C7706A]  (AR v2)
Track  4  cannot be verified as accurate (confidence 1)  [0492E33B], AccurateRip returned [9AA21E02]  (AR v2)
Track  5  cannot be verified as accurate (confidence 1)  [6C35E3DD], AccurateRip returned [EF6F04F9]  (AR v2)
Track  6  cannot be verified as accurate (confidence 1)  [9588177F], AccurateRip returned [ABA60041]  (AR v2)
Track  7  cannot be verified as accurate (confidence 1)  [E00CE49F], AccurateRip returned [1CC6B9F8]  (AR v2)
Track  8  cannot be verified as accurate (confidence 1)  [045BA89F], AccurateRip returned [7C29B47D]  (AR v2)
Track  9  cannot be verified as accurate (confidence 1)  [2DD612E5], AccurateRip returned [51371D5F]  (AR v2)
Track 10  cannot be verified as accurate (confidence 1)  [72CA4A65], AccurateRip returned [49821D22]  (AR v2)
No tracks could be verified as accurate
You may have a different pressing from the one(s) in the database
End of status report
Код:
REM GENRE Rock
REM DATE 2016
REM DISCID 810CC20A
REM COMMENT "ExactAudioCopy v1.0b3"
PERFORMER "Magnum"
TITLE "Sacred Blood, 'Divine' Lies"
FILE "Magnum - Sacred Blood, ''Divine'' Lies.flac" WAVE
  TRACK 01 AUDIO
    TITLE "Sacred Blood, 'Divine' Lies"
    PERFORMER "Magnum"
    INDEX 01 00:00:00
  TRACK 02 AUDIO
    TITLE "Crazy Old Mothers"
    PERFORMER "Magnum"
    INDEX 01 06:41:53
  TRACK 03 AUDIO
    TITLE "Gypsy Queen"
    PERFORMER "Magnum"
    INDEX 01 12:30:05
  TRACK 04 AUDIO
    TITLE "Princess In Rags (The Cult)"
    PERFORMER "Magnum"
    INDEX 01 16:59:49
  TRACK 05 AUDIO
    TITLE "Your Dreams Won't Die"
    PERFORMER "Magnum"
    INDEX 01 22:26:68
  TRACK 06 AUDIO
    TITLE "Afraid Of The Night"
    PERFORMER "Magnum"
    INDEX 01 27:52:58
  TRACK 07 AUDIO
    TITLE "A Forgotten Conversation"
    PERFORMER "Magnum"
    INDEX 01 32:24:72
  TRACK 08 AUDIO
    TITLE "Quiet Rhapsody"
    PERFORMER "Magnum"
    INDEX 01 37:21:25
  TRACK 09 AUDIO
    TITLE "Twelve Men Wise And Just"
    PERFORMER "Magnum"
    INDEX 01 43:01:28
  TRACK 10 AUDIO
    TITLE "Don't Cry Baby"
    PERFORMER "Magnum"
    INDEX 01 49:20:25
--
Download / Скачать

Хотите скачать бесплатно? Зарегистрируйтесь на сайте (ссылка на регистрацию). Pirat.ca - самый быстрый торрент трекер в рунете!

Как скачивать  ·   Что такое торрент  ·   Рейтинг и ограничения

BilG

Морской Волк

Пост 06-Апр-2017 11:11 (спустя 2 месяца 29 дней)

[Q] 

Слава —дым! Богатство —тлен

_________________
[Профиль]  [ЛС] 
Показать сообщения:    
Ответить на тему

Текущее время: Сегодня 16:21

Часовой пояс: GMT + 4



Вы не можете начинать темы
Вы не можете отвечать на сообщения
Вы не можете редактировать свои сообщения
Вы не можете удалять свои сообщения
Вы не можете голосовать в опросах
Вы не можете прикреплять файлы к сообщениям
Вы не можете скачивать файлы

▼ Вниз