ML
     
  Уважаемый Гость!
Вы можете поддержать проект и зарегистрироваться у наших партнеров - онлайн-стратегия MyLands. При регистрации в игре Вы получите код, который сможете активировать после регистрации на pirat.ca и получить 1000 дублонов.

Ваш код:
9bca7f28ce37d8244f4c8eba3e54e9503ebf9852
 
     

Трансформация / Rupture (Стивен Шейнберг / Steven Shainberg) [2016 г., фантастика, триллер, WEBDLRip] MVO + Original (Eng)

Ответить на тему
 
Автор
Сообщение

Пост 09-Янв-2017 04:12

[Q] 

somik

-Трансформация / Rupture-- Производство: ША, Канада
Год выпуска: 2016 г.
Жанр: фантастика, триллер
Продолжительность: 01:41:40
Мировая премьера: 15 июля 2016
Российская премьера: 26 января 2017, «MEGOGO Distribution»
Перевод: Любительский (многоголосый, закадровый) [@MUZOBOZ@]
Оригинальный аудиопоток: английский
Режиссер: Стивен Шейнберг / Steven Shainberg-В ролях: Нуми Рапас, Петер Стормаре, Керри Бише, Майкл Чиклис, Эри Миллен, Лесли Мэнвилл, Джин Юн, Перси Хайнс Уайт, Морган Келли, Серджо Ди Зио-Описание: Рене живет со своим 12-летним сыном в тихом районе на окраине города. Она страшно боится пауков. Однажды ее похищают незнакомцы, и она приходит в себя в лаборатории, где узнает, что она — уникальный обладатель генетической аномалии, которая может помочь ей трансформироваться в иную сущность, в монстра…-
Качество видео: WEBDLRip
Контейнер: AVI
Видео кодек: XviD
Аудио кодек: AC3
Видео: 720x304 (2.37:1), 23.976 fps, XviD build 50 ~2134 kbps avg, 0.41 bit/pixel
Аудио: 48 kHz, AC3 Dolby Digital, 3/2 (L,C,R,l,r) + LFE ch, 384 kbps
Аудио #2: 48 kHz, AC3 Dolby Digital, 3/2 (L,C,R,l,r) + LFE ch, 384 kbps
Cубтитры: отсутствуют
Общее
Полное имя : J:\Трансформация Rupture (2016) HDRip L\Rupture.2016.BDRip.[pirat.ca].avi
Формат : AVI
Формат/Информация : Audio Video Interleave
Профиль формата : OpenDML
Размер файла : 2,07 Гбайт
Продолжительность : 1 ч. 41 м.
Общий поток : 2909 Кбит/сек
Программа кодирования : VirtualDubMod 1.5.10.2 (build 2540/release)
Библиотека кодирования : VirtualDubMod build 2540/release
Видео
Идентификатор : 0
Формат : MPEG-4 Visual
Профиль формата : Advanced [email protected]
Параметр BVOP формата : 1
Параметр QPel формата : Нет
Параметр GMC формата : Без точки перехода
Параметр матрицы формата : Выборочная
Идентификатор кодека : XVID
Идентификатор кодека/Подсказка : XviD
Продолжительность : 1 ч. 41 м.
Битрейт : 2123 Кбит/сек
Ширина : 720 пикселей
Высота : 304 пикселя
Соотношение сторон : 2,35:1
Частота кадров : 23,976 (23976/1000) кадра/сек
Цветовое пространство : YUV
Субдискретизация насыщенности : 4:2:0
Битовая глубина : 8 бит
Тип развёртки : Прогрессивная
Метод сжатия : С потерями
Бит/(Пиксели*Кадры) : 0.405
Размер потока : 1,51 Гбайт (73%)
Библиотека кодирования : XviD 1.2.1 (UTC 2008-12-04)
Аудио #1
Идентификатор : 1
Формат : AC-3
Формат/Информация : Audio Coding 3
Расширение режима : CM (complete main)
Параметр Endianness формата : Big
Идентификатор кодека : 2000
Продолжительность : 1 ч. 41 м.
Вид битрейта : Постоянный
Битрейт : 384 Кбит/сек
Каналы : 6 каналов
Расположение каналов : Front: L C R, Side: L R, LFE
Частота : 48,0 КГц
Частота кадров : 31,250 кадров/сек (1536 spf)
Метод сжатия : С потерями
Размер потока : 279 Мбайт (13%)
Выравнивание : Разделение по промежуткам
Продолжительность промежутка : 42 мс. (1,00 видеокадр)
Время предзагрузки промежутка : 500 мс.
Аудио #2
Идентификатор : 2
Формат : AC-3
Формат/Информация : Audio Coding 3
Расширение режима : CM (complete main)
Параметр Endianness формата : Big
Идентификатор кодека : 2000
Продолжительность : 1 ч. 41 м.
Вид битрейта : Постоянный
Битрейт : 384 Кбит/сек
Каналы : 6 каналов
Расположение каналов : Front: L C R, Side: L R, LFE
Частота : 48,0 КГц
Частота кадров : 31,250 кадров/сек (1536 spf)
Метод сжатия : С потерями
Размер потока : 279 Мбайт (13%)
Выравнивание : Разделение по промежуткам
Продолжительность промежутка : 42 мс. (1,00 видеокадр)
Время предзагрузки промежутка : 500 мс.
Download / Скачать

Хотите скачать бесплатно? Зарегистрируйтесь на сайте (ссылка на регистрацию). Pirat.ca - самый быстрый торрент трекер в рунете!

Как скачивать  ·   Что такое торрент  ·   Рейтинг и ограничения

Андря

8473

Пост 09-Янв-2017 08:51 (спустя 4 часа)

[Q] 

781926Производство: ША
bj cy
оставь, не исправляй. ))))

_________________
Като Тешекика
[Профиль]  [ЛС] 

serded74

Морской Волк

Пост 09-Янв-2017 11:27 (спустя 2 часа 35 минут)

[Q] 

В ША все двинулись на мутантах и зомби. Автору респект!!!
[Профиль]  [ЛС] 

Андря

8473

Пост 09-Янв-2017 12:26 (спустя 58 минут)

[Q] 

serded74, не спроста это, ой не спроста.

_________________
Като Тешекика
[Профиль]  [ЛС] 

Innesa

Шкипер

Пост 09-Янв-2017 13:36 (спустя 1 час 10 минут)

[Q] 

Смотрели на другом сайте фильм посредственный на любителя, под конец спал
[Профиль]  [ЛС] 

Sergejs44

Морской Волк

Пост 09-Янв-2017 14:41 (спустя 1 час 4 минуты)

[Q] 

В ША все двинулись на мутантах и зомби.
[Профиль]  [ЛС] 

Rei1

Гроза морей

Пост 09-Янв-2017 17:48 (спустя 3 часа)

[Q] 

Смотрел трейлер каество эффектов не поразило, но обязательно скааю промотаю гляну) Спасибо!
[Профиль]  [ЛС] 

aka_johnny

Флибустьер

Пост 10-Янв-2017 01:15 (спустя 7 часов)

[Q] 

781992Смотрел трейлер каество эффектов не поразило, но обязательно скааю промотаю гляну) Спасибо!
а мне понравилась последняя фраза СКОРО В КИНОТЕАТРАХ!) хорошо что у нас есть фильтр)
[Профиль]  [ЛС] 

raul kurochka

Флибустьер

Пост 10-Янв-2017 22:26 (спустя 21 час)

[Q] 

Рапас, Стромаре, Чиклис и питон лезущий из важайны героини конечно интригуют, но... Просмотр трейлера убил желание просмотра. По-ходу глухой порожняк с до пошлости тривиальным сюжетом. cx

_________________
...ЧО ТАКОЙ СЕРЬЕЗНЫЙ???
[Профиль]  [ЛС] 

olmed

Гроза морей

Пост 11-Янв-2017 12:57 (спустя 14 часов)

[Q] 

На любителя
[Профиль]  [ЛС] 

урик

Лоцман

Пост 13-Янв-2017 14:51 (спустя 2 дня 1 час)

[Q] 

Фуфломицин:)Бредятина:)
[Профиль]  [ЛС] 

SeregaVM

Штурман

Пост 21-Янв-2017 18:37 (спустя 8 дней)

[Q] 

Бууээээ, ваще не о чем!
[Профиль]  [ЛС] 

tvskit

Гроза морей

Пост 27-Янв-2017 12:53 (спустя 5 дней)

[Q] 

Не, я бы ещё простил, если бы она, хотя бы в паука трансформировалась. А тут она просто, тупо, скорчила рожу. ca

_________________
[Профиль]  [ЛС] 

lam

Лоцман

Пост 16-Фев-2017 18:57 (спустя 20 дней)

[Q] 

784949Не, я бы ещё простил, если бы она, хотя бы в паука трансформировалась. А тут она просто, тупо, скорчила рожу. ca
ахахха))
[Профиль]  [ЛС] 

ТАЛИ

Флибустьер

Пост 19-Фев-2017 00:09 (спустя 2 дня 5 часов)

[Q] 

Сюжет фильма уложился бы в 10-минутную короткометражку, но растянут почти на 2 часа, в течение которых на экране происходит какая-то непонятная хрень. Смотришь потому, что кажется, что вот-вот случится что-то фееричное... А вот нет. Фильм как невнятно начался, так же и закончился. Разве что на Нуми Рапас посмотреть, которая, как всегда, на надрыве...
[Профиль]  [ЛС] 

Пост 21-Фев-2017 09:04 (спустя 2 дня 8 часов)

Топик был перенесен из форума Новинки (HD|DVD|BD| TV|SAT|PDTV| - Rips) в форум Фильмы 2010 - 2016 г.г.
aleksey99
 

Sharifulla

Корсар

Пост 21-Фев-2017 23:15 (спустя 2 дня 23 часа)

[Q] 

Автору спасибо, фильм на любителя
[Профиль]  [ЛС] 
Показать сообщения:    
Ответить на тему

Текущее время: Сегодня 13:11

Часовой пояс: GMT + 4



Вы не можете начинать темы
Вы не можете отвечать на сообщения
Вы не можете редактировать свои сообщения
Вы не можете удалять свои сообщения
Вы не можете голосовать в опросах
Вы не можете прикреплять файлы к сообщениям
Вы не можете скачивать файлы

▼ Вниз