Уважаемый Гость!
Вы можете поддержать проект и зарегистрироваться у наших партнеров - онлайн-стратегия MyLands. При регистрации в игре Вы получите код, который сможете активировать после регистрации на pirat.ca и получить 1000 дублонов.

Ваш код:
e5754b3f8b0cb133e1b96972d7a315d8323bd8a7
 
     

Эндорфин / Endorphine (Андре Тюрпен / André Turpin) [2015 г., драма, WEB-DLRip] MVO

Ответить на тему
 
Автор
Сообщение

Пост 10-Янв-2017 16:27

[Q] 

somik

-Эндорфин / Endorphine-- Производство: Канада, Micro_scope media
Год выпуска: 2015 г.
Жанр: драма
Продолжительность: 01:23:16
Мировая премьера: 11 сентября 2015
Перевод: Профессиональный (многоголосый, закадровый) [AzOnFilm]
Режиссер: Андре Тюрпен / André Turpin-В ролях: Софи Нелисс, Милен МакКей, Лизе Рой, Ги Товетт, Монья Шокри, Стефан Крет, Анна-Мари Кадьо, Теодор Пеллерен, Фанни Мигнео-Лекавалье, Франсис Дюшарм-Описание: Драматический фильм-головоломка Андре Тюрпена. Три героини, связанные, казалось бы, только одинаковым именем Симона, борются с психологической травмой: 12-летняя девочка, ставшая свидетельницей жестокого убийства матери, одинокая художница, страдающая от панических атак, и 60-летняя женщина-физик. Но где здесь будущее, а где прошлое? Где реальность, а где игры подсознания?..-
Качество видео: WEB-DLRip
Контейнер: AVI
Видео кодек: XviD
Аудио кодек: AC3
Видео: 720x384 (1.88:1), 23.976 fps, XviD build 73 ~2110 kbps avg, 0.32 bit/pixel
Аудио: 48 kHz, AC3 Dolby Digital, 3/2 (L,C,R,l,r) + LFE ch, 384 kbps
Cубтитры: отсутствуют
Общее
Полное имя : F:\Эндорфин Endorphine (2015) WEB-DLRip P\Endorphine.2015.WEB-DLRip.[pirat.ca].avi
Формат : AVI
Формат/Информация : Audio Video Interleave
Размер файла : 1,46 Гбайт
Продолжительность : 1 ч. 23 м.
Общий поток : 2502 Кбит/сек
Видео
Идентификатор : 0
Формат : MPEG-4 Visual
Профиль формата : Advanced [email protected]
Параметр BVOP формата : 1
Параметр QPel формата : Нет
Параметр GMC формата : Без точки перехода
Параметр матрицы формата : Выборочная
Идентификатор кодека : XVID
Идентификатор кодека/Подсказка : XviD
Продолжительность : 1 ч. 23 м.
Битрейт : 2110 Кбит/сек
Ширина : 720 пикселей
Высота : 384 пикселя
Соотношение сторон : 1,85:1
Частота кадров : 23,976 (24000/1001) кадра/сек
Цветовое пространство : YUV
Субдискретизация насыщенности : 4:2:0
Битовая глубина : 8 бит
Тип развёртки : Прогрессивная
Метод сжатия : С потерями
Бит/(Пиксели*Кадры) : 0.318
Размер потока : 1,23 Гбайт (84%)
Библиотека кодирования : XviD 73
Аудио
Идентификатор : 1
Формат : AC-3
Формат/Информация : Audio Coding 3
Расширение режима : CM (complete main)
Параметр Endianness формата : Big
Идентификатор кодека : 2000
Продолжительность : 1 ч. 23 м.
Вид битрейта : Постоянный
Битрейт : 384 Кбит/сек
Каналы : 6 каналов
Расположение каналов : Front: L C R, Side: L R, LFE
Частота : 48,0 КГц
Частота кадров : 31,250 кадров/сек (1536 spf)
Метод сжатия : С потерями
Размер потока : 229 Мбайт (15%)
Выравнивание : Соединение по промежуткам
Продолжительность промежутка : 64 мс. (1,53 видеокадра)
Время предзагрузки промежутка : 192 мс.
Заголовок : AzOnFilm
Download / Скачать

Хотите скачать бесплатно? Зарегистрируйтесь на сайте (ссылка на регистрацию). Pirat.ca - самый быстрый торрент трекер в рунете!

Как скачивать  ·   Что такое торрент  ·   Рейтинг и ограничения

olmed

Гроза морей

Пост 11-Янв-2017 13:30 (спустя 21 час)

[Q] 

кто смотрел... как фильм?
[Профиль]  [ЛС] 
Показать сообщения:    
Ответить на тему

Текущее время: Сегодня 13:09

Часовой пояс: GMT + 4



Вы не можете начинать темы
Вы не можете отвечать на сообщения
Вы не можете редактировать свои сообщения
Вы не можете удалять свои сообщения
Вы не можете голосовать в опросах
Вы не можете прикреплять файлы к сообщениям
Вы не можете скачивать файлы

▼ Вниз