ML
     
  Уважаемый Гость!
Вы можете поддержать проект и зарегистрироваться у наших партнеров - онлайн-стратегия MyLands. При регистрации в игре Вы получите код, который сможете активировать после регистрации на pirat.ca и получить 1000 дублонов.

Ваш код:
f5d3bbd32c6e57c4595a517c6782c3ee2722d9eb
 
     

Изумрудный Город / Emerald City / Сезон: 1 / Серии: 1-10 из 10 (Тарсем Сингх / Tarsem Singh) [2017, США, Фэнтези, приключения, HDTVRip] MVO (Jaskier) + Original [финал]

Ответить на тему
 
Автор
Сообщение

Пост 10-Янв-2017 17:28

[Q] 

kugesan

Изумрудный Город | Emerald City
«Say goodbye to Kansas»
- Производство: США
Год выпуска: 2017
Жанр: Фэнтези, приключения
Продолжительность: ~ 00:40:00 серия-Премьера (мир): 6 января 2017
Премьера (РФ): 8 января 2017-Озвучка: Студия |Jaskier|
Перевод: Многоголосый закадровый, профессиональный
Оригинальный аудиопоток: английский-Режиссер: Тарсем Сингх / Tarsem Singh
Актеры: Адриа Архона (Дороти Гейл), Винсент Д’Онофрио (Волшебник), Оливер Джексон-Коэн (Лукас), Ана Улару (Ведьма Запада), Герран Хауэлл (Джек), Изабель Лукас (Анна), Джордан Лоугрэн (Тип)-Описание фильма:
Дороти Гейл — двадцатилетняя девушка, мечтающая стать врачом. Мать оставила ее в младенчестве, и все заботы по воспитанию племянницы взяла на себя тетя. Однажды в дороге Дороти застал сильнейший смерч, а когда он закончился, она прямо в машине рухнула на странную женщину в красном. Придя в себя, девушка получила шокирующую новость — незнакомка, которую она случайно убила, была ведьмой, а мир, где она очутилась, живет по законам Средневековья. Также выяснилось, что вернуть чужестранку домой может только здешний Волшебник, но для этого Гейл придется пересечь всю страну Оз. В самом начале путешествия Дороти встретился распятый на кресте человек, который не помнит ни своего имени, ни единого фрагмента из прошлого. На следующий день судьба свела девушку с ребенком, которому необходимо регулярно принимать лекарство, чтобы оставаться здоровым. Кто из этих людей на самом деле готов стать ей другом, а кто является бомбой замедленного действия? Доберется ли Дороти до Изумрудного города, когда на каждом шагу ее подстерегает опасность? А если доберется, не победит ли зло этого места доброту в ее сердце?..
-Качество видео: HDTVRip
Формат: AVI
Видеокодек: XviD
Аудиокодек: Mp3
Видео: MPEG-4 Visual at 1405 Кбит/сек: 720 x 400 (1.800) at 23.976 fps: 0.20 Бит/Пиксели
Аудио Rus: MPEG Audio at 128 Кбит/сек, 2 канала, 48,0 КГц |Jaskier|
Аудио Eng: MPEG Audio at 128 Кбит/сек, 2 канала, 48,0 КГц |Original|
- -
  • Вечный зверь
  • Тюрьма
  • Любовница - Новая - Хозяйка
  • Наука и магия
  • Все лгут
  • Прекрасная и ужасная
  • Это моя семья
  • Львы зимой
  • Злодеями не рождаются
  • Дом, милый дом
-
Общее
Полное имя : E:\_Сериалы\_Сериалы\Изумрудный Город\Emerald City (Season 01) Jaskier\Emerald.City.S01E01-02.HDTVRip.Rus.Eng.Jaskier.avi
Формат : AVI
Формат/Информация : Audio Video Interleave
Размер файла : 950 Мбайт
Продолжительность : 1 ч. 19 м.
Общий поток : 1675 Кбит/сек
Программа кодирования : VirtualDubMod 1.5.10.3 | www.virtualdub-fr.org || (build 2550/release)
Библиотека кодирования : VirtualDubMod build 2550/release
Видео
Идентификатор : 0
Формат : MPEG-4 Visual
Профиль формата : Advanced [email protected]
Параметр BVOP формата : 1
Параметр QPel формата : Нет
Параметр GMC формата : Без точки перехода
Параметр матрицы формата : Выборочная
Идентификатор кодека : XVID
Идентификатор кодека/Подсказка : XviD
Продолжительность : 1 ч. 19 м.
Битрейт : 1405 Кбит/сек
Ширина : 720 пикселей
Высота : 400 пикселей
Соотношение сторон : 16:9
Частота кадров : 23,976 (24000/1001) кадра/сек
Цветовое пространство : YUV
Субдискретизация насыщенности : 4:2:0
Битовая глубина : 8 бит
Тип развёртки : Прогрессивная
Метод сжатия : С потерями
Бит/(Пиксели*Кадры) : 0.203
Размер потока : 797 Мбайт (84%)
Библиотека кодирования : XviD 73
Аудио #1
Идентификатор : 1
Формат : MPEG Audio
Версия формата : Version 1
Профиль формата : Layer 3
Режим : Joint stereo
Расширение режима : MS Stereo
Идентификатор кодека : 55
Идентификатор кодека/Подсказка : MP3
Продолжительность : 1 ч. 19 м.
Вид битрейта : Постоянный
Битрейт : 128 Кбит/сек
Каналы : 2 канала
Частота : 48,0 КГц
Метод сжатия : С потерями
Размер потока : 72,6 Мбайт (8%)
Выравнивание : Соединение по промежуткам
Продолжительность промежутка : 42 мс. (1,00 видеокадр)
Время предзагрузки промежутка : 504 мс.
Аудио #2
Идентификатор : 2
Формат : MPEG Audio
Версия формата : Version 1
Профиль формата : Layer 3
Режим : Joint stereo
Расширение режима : MS Stereo
Идентификатор кодека : 55
Идентификатор кодека/Подсказка : MP3
Продолжительность : 1 ч. 19 м.
Вид битрейта : Постоянный
Битрейт : 128 Кбит/сек
Каналы : 2 канала
Частота : 48,0 КГц
Метод сжатия : С потерями
Размер потока : 72,6 Мбайт (8%)
Выравнивание : Соединение по промежуткам
Продолжительность промежутка : 42 мс. (1,00 видеокадр)
Время предзагрузки промежутка : 504 мс.
-
-Скриншоты:
-
Раздача ведётся путём добавления новых серий; при каждом добавлении создаётся новый торрент.
Чтобы начать докачку новой серии, пользователям необходимо сделать следующее:
1. остановить скачивание,
2. удалить старый торрент у себя из клиента (старые серии удалять не надо),
3. скачать новый торрент и запустить его у себя в клиенте вместо старого, при этом указать клиенту путь в старую папку, куда и должно происходить скачивание новых серий.
Ваш клиент при этом должен произвести хеширование (проверку) старой папки (если не производит сам - помогите ему сделать это), и будет докачивать только те серии которых у вас ещё нет. Старые серии при этом не удаляются, а продолжают раздаваться!
Eсли вы уже удалили старые серии, то предотвратить повторную закачку старых серий можно, отжав галочку в соответствующих местах при запуске нового торрента. По возможности, желательно не удалять старые серии как можно дольше, чтобы релизёр не столько продолжал раздавать старые серии, а смог сконцентрироваться на новых.
Совет для тех, кто не хочет ждать перехеширования:
Создайте ещё одну папку рядом с папкой сериала (рядом, а не в ней!!!). Каждую новую серию после удачной загрузки копируйте в новую папку так чтобы ваша основная папка всегда была пуста. Когда ваш новый торрент предложит вам закачать все файлы, выберете только последнюю. Для сидирования же укажите адрес новой папки.
Как закачать отдельный файл из торрента или докачать ранее пропущенные файлы торрента!
-
1. Открыть торрент
2. Снять галки с тех файлов торрента, которые мы не хотим закачивать. Оставляем только на нужных нам файлах (файле).
3. Нажать О.К.
В клиенте utorrent
Инструкция
1) Открыть торрент

2) Снять галки с тех файлов торрента, которые мы не хотим закачивать:
* либо вручную, снимая с каждого файла галку( скрин №1)
* либо, нажав кнопку "Снять метки (Select None)", сняв сразу со всех файлов(скрин №2)
№1

№2

Оставляем только на нужных нам файлах (файле).

3)Нажать О.К
-Приятного просмотра!!!-
Download / Скачать

Хотите скачать бесплатно? Зарегистрируйтесь на сайте (ссылка на регистрацию). Pirat.ca - самый быстрый торрент трекер в рунете!

Как скачивать  ·   Что такое торрент  ·   Рейтинг и ограничения



Последний раз редактировалось: kugesan (2017-03-07 22:20), всего редактировалось 3 раз(а)

Gambito

Лоцман

Пост 08-Фев-2017 18:40 (спустя 29 дней)

[Q] 

Такая мура...
[Профиль]  [ЛС] 

R_O_Z_A

Корсар

Пост 11-Фев-2017 21:25 (спустя 3 дня)

[Q] 

Раз посмотреть можно На любителя
[Профиль]  [ЛС] 

real_2016

Лоцман

Пост 08-Апр-2017 07:50 (спустя 1 месяц 24 дня)

[Q] 

Смотреть можно, но ожидал намного большего. Не тянет режиссер.
[Профиль]  [ЛС] 

Rei1

Легенда

Пост 29-Апр-2017 21:19 (спустя 21 день)

[Q] 

Классный сериал, в детстве книгу читал от нее отошли в ходе сюжета но основа та же)
[Профиль]  [ЛС] 
Показать сообщения:    
Ответить на тему

Текущее время: Сегодня 01:11

Часовой пояс: GMT + 4



Вы не можете начинать темы
Вы не можете отвечать на сообщения
Вы не можете редактировать свои сообщения
Вы не можете удалять свои сообщения
Вы не можете голосовать в опросах
Вы не можете прикреплять файлы к сообщениям
Вы не можете скачивать файлы

▼ Вниз