Уважаемый Гость!
Вы можете поддержать проект и зарегистрироваться у наших партнеров - онлайн-стратегия MyLands. При регистрации в игре Вы получите код, который сможете активировать после регистрации на pirat.ca и получить 1000 дублонов.

Ваш код:
a25f9f42634dbf8d6c9a235097998d18c1717c6a
 
     

Последний магнат / Once Upon a Time in Shanghai / Da Shang Hai (Вон Цзин / Wong Jing) [2012 г., боевик, драма, приключения, BDRip, 720p] DVO

Ответить на тему
 
Автор
Сообщение

Пост 10-Янв-2017 18:53

[Q] 

somik

-Последний магнат / Once Upon a Time in Shanghai / Da Shang Hai-- Производство: Гонконг, Китай
Год выпуска: 2012 г.
Жанр: боевик, драма, приключения
Продолжительность: 01:58:47
Мировая премьера: 21 декабря 2012
Перевод: Профессиональный (двухголосый, закадровый)
Режиссер: Вон Цзин / Wong Jing-В ролях: Саммо Хунг, Чоу Юнь-Фат, Фрэнсис НГ, Ясуаки Курата, Хуанг Сяомин-Описание: Реальная история лидера бандитской группировки, который построил свою империю, существовавшую в 1920-е и 30-е года в Шанхае.-
Качество видео: BDRip
Контейнер: MKV
Стандарт разрешения: 720p
Видео кодек: MPEG4 AVC
Аудио кодек: DTS
Видео: 1280X532, 24.000 fps (2.40:1), 6 363 Kbps
Аудио: DTS, 1510 Kbps, 6 channels (L C R, Side: L R, LFE)
Cубтитры: отсутствуют
Китайский Голливуд
Очень интересно было наблюдать на экране своеобразный дует, состоящий из Чоу Юнь-Фата и Саммо Хунга Кам-Бо. Своеобразный да, но не неудачный. Хотя так же непривычна была для меня столь серьезная роль Саммо Хунга, хотя и в ней он смотрелся великолепно.
Фильм о любви, чести и верности. Современный фильм о любви, чести и верности. В последнее десятилетие очень редко можно найти фильм на такую тематику, который стоит потраченного времени. Тем более с таким дуэтом. Но эта лента не просто достойна Вашего внимания, у многих она, скорее всего, займет почетное место в коллекции лучших фильмов. Признаюсь, я не много ожидал от этого творения, ибо в последнее время появилась мода выпускать что-то несуразное с довольно таки известными актерами. К счастью, мои опасения не оправдались.
Игра актеров была просто блестящей. Здесь практически нигде нельзя было придраться. Практически. Лишь иногда проскальзывают моменты, когда Вы немного прищуриваетесь, но тут же расслабляетесь с мыслью «Померещилось».
Сюжет был банален? Да. Но подан так, что этого не скажешь. В нем нет той пафосности, которая присутствует во всех современных америка- английских фильмах, нет той излишки чувств у актеров, которая сводит всю игру на нет. А главное, фильм заставляет задуматься. Даже скорее не о мире, а о себе, как бы Вы поступили на месте героя, каковы его поступки с Вашей точки зрения.
Саммо Хунг. Непривычно наблюдать этого актера в столь несвойственном ему персонажа. Но даже в столь серьезную, даже драматическую, роль Саммо Хунг привнес часть своего обаяния, на него нельзя было смотреть без улыбки.
Фильм держит в напряжении практически с первых минут и до последних. Главный герой вместе с друзьями прошел трудный путь и мы его прошли вместе с ними.
Об этом фильме можно много и долго говорить, но лучше 1 раз увидеть, чем 100 раз услышать. Поверьте, Вы не пожалеете.
9 из 10
Общее
Уникальный идентификатор : 230995181252709094792434404125408284865 (0xADC80DBC8E25904D88681BA6410CD0C1)
Полное имя : F:\Последний магнат The Last Tycoon Once Upon a Time in Shanghai (2012) BDRip 720p\Once Upon a Time in Shanghai.2012.BDRip.720p.[pirat.ca].mkv
Формат : Matroska
Версия формата : Version 2
Размер файла : 5,28 Гбайт
Продолжительность : 1 ч. 58 м.
Общий поток : 6361 Кбит/сек
Дата кодирования : UTC 2017-01-10 13:58:38
Программа кодирования : mkvmerge v5.3.0 ('I could have danced') built on Feb 9 2012 10:38:07
Библиотека кодирования : libebml v1.2.3 + libmatroska v1.3.0
Видео
Идентификатор : 1
Формат : AVC
Формат/Информация : Advanced Video Codec
Профиль формата : [email protected]
Параметр CABAC формата : Да
Параметр ReFrames формата : 12 кадров
Идентификатор кодека : V_MPEG4/ISO/AVC
Продолжительность : 1 ч. 58 м.
Битрейт : 4852 Кбит/сек
Ширина : 1280 пикселей
Высота : 532 пикселя
Соотношение сторон : 2,40:1
Режим частоты кадров : Постоянный
Частота кадров : 24,000 кадра/сек
Цветовое пространство : YUV
Субдискретизация насыщенности : 4:2:0
Битовая глубина : 8 бит
Тип развёртки : Прогрессивная
Бит/(Пиксели*Кадры) : 0.297
Размер потока : 3,92 Гбайт (74%)
Библиотека кодирования : x264 core 130 r2273 b3065e6
Настройки программы : cabac=1 / ref=12 / deblock=1:-3:-3 / analyse=0x3:0x113 / me=umh / subme=10 / psy=1 / psy_rd=1.00:0.05 / mixed_ref=1 / me_range=32 / chroma_me=1 / trellis=2 / 8x8dct=1 / cqm=0 / deadzone=21,11 / fast_pskip=0 / chroma_qp_offset=-2 / threads=8 / lookahead_threads=1 / sliced_threads=0 / nr=0 / decimate=1 / interlaced=0 / bluray_compat=0 / constrained_intra=0 / bframes=5 / b_pyramid=2 / b_adapt=2 / b_bias=0 / direct=3 / weightb=1 / open_gop=0 / weightp=2 / keyint=250 / keyint_min=24 / scenecut=40 / intra_refresh=0 / rc=2pass / mbtree=0 / bitrate=4852 / ratetol=1.0 / qcomp=0.70 / qpmin=0 / qpmax=69 / qpstep=4 / cplxblur=20.0 / qblur=0.5 / ip_ratio=1.40 / pb_ratio=1.30 / aq=2:0.90
Язык : Chinese
Default : Да
Forced : Нет
Аудио
Идентификатор : 2
Формат : DTS
Формат/Информация : Digital Theater Systems
Режим : 16
Параметр Endianness формата : Big
Идентификатор кодека : A_DTS
Продолжительность : 1 ч. 58 м.
Вид битрейта : Постоянный
Битрейт : 1510 Кбит/сек
Каналы : 6 каналов
Расположение каналов : Front: L C R, Side: L R, LFE
Частота : 48,0 КГц
Частота кадров : 93,750 кадра/сек (512 spf)
Битовая глубина : 24 бит
Метод сжатия : С потерями
Размер потока : 1,25 Гбайт (24%)
Язык : Russian
Default : Да
Forced : Нет
Download / Скачать

Хотите скачать бесплатно? Зарегистрируйтесь на сайте (ссылка на регистрацию). Pirat.ca - самый быстрый торрент трекер в рунете!

Как скачивать  ·   Что такое торрент  ·   Рейтинг и ограничения

somik ®

37445

Пост 10-Янв-2017 20:53 (спустя 2 часа)

[Q] 

Саммо Хунг, Чоу Юнь-Фат... Это глыбы...

_________________
Всё когда-нибудь уже было... В интернете!
[Профиль]  [ЛС] 
Показать сообщения:    
Ответить на тему

Текущее время: Сегодня 02:46

Часовой пояс: GMT + 4



Вы не можете начинать темы
Вы не можете отвечать на сообщения
Вы не можете редактировать свои сообщения
Вы не можете удалять свои сообщения
Вы не можете голосовать в опросах
Вы не можете прикреплять файлы к сообщениям
Вы не можете скачивать файлы

▼ Вниз