ML
     
  Уважаемый Гость!
Вы можете поддержать проект и зарегистрироваться у наших партнеров - онлайн-стратегия MyLands. При регистрации в игре Вы получите код, который сможете активировать после регистрации на pirat.ca и получить 1000 дублонов.

Ваш код:
e45ce7d8f56c618dc58aa1534be2f7e246374b15
 
     

Забыть и простить / Forget and Forgive (Тристан Дюбуа / Tristan Dubois) [2014 г., триллер, HDTVRip] MVO

Ответить на тему
 
Автор
Сообщение

Пост 12-Янв-2017 05:04

[Q] 

somik

Легенда

-Забыть и простить / Forget and Forgive-- Производство: Канада
Год выпуска: 2014 г.
Жанр: триллер
Продолжительность: 01:26:27
Мировая премьера: 12 января 2014
Перевод: Профессиональный (многоголосый, закадровый)
Режиссер: Тристан Дюбуа / Tristan Dubois-В ролях: Элизабет Рём, Тай Рунян, Нил Напье, Вивьен Эндикотт Дуглас, Мэл Дассен, Кэти Грабстас, Ричард Кларкин, Клаудия Бессо, Рафаэль Грош-Харви, Фрэнк Мур-Описание: Анна Уолкер профессионально выполняет свой служебный долг детектива. Она расследует дело, которое изменит ее жизнь. Точнее, может ее лишить. Но в результате покушения Анне удается выжить. Однако придя в себя в больнице, женщина не помнит ни кто она, ни как ее зовут. Даже родная дочь и муж оказываются для нее незнакомыми людьми. Но постепенно фрагменты воспоминаний всплывают в ее голове. Тогда Анна понимает, что ее профессиональная деятельность грозит не только ей, но и ее семье. Сможет ли она закончить то, что начала?-
Качество видео: HDTVRip
Контейнер: AVI
Видео кодек: XviD
Аудио кодек: AC3
Видео: 720x400 (1.80:1), 25 fps, XviD build 50, 2060 kbps avg, 0.29 bit/pixel
Аудио: 48 kHz, AC3 Dolby Digital, 2/0 (L,R) ch, 192 kbps
Cубтитры: отсутствуют
Общее
Полное имя : J:\Забыть и простить Forget and Forgive (2014)\Zabytj i prostitj.2O14.P.HDTVRip.[pirat.ca].avi
Формат : AVI
Формат/Информация : Audio Video Interleave
Размер файла : 1,37 Гбайт
Продолжительность : 1 ч. 26 м.
Общий поток : 2263 Кбит/сек
Программа кодирования : VirtualDubMod 1.5.10.2 (build 2540/release)
Библиотека кодирования : VirtualDubMod build 2540/release
Видео
Идентификатор : 0
Формат : MPEG-4 Visual
Профиль формата : Advanced [email protected]
Параметр BVOP формата : 2
Параметр QPel формата : Нет
Параметр GMC формата : Без точки перехода
Параметр матрицы формата : Default (MPEG)
Идентификатор кодека : XVID
Идентификатор кодека/Подсказка : XviD
Продолжительность : 1 ч. 26 м.
Битрейт : 2061 Кбит/сек
Ширина : 720 пикселей
Высота : 400 пикселей
Соотношение сторон : 16:9
Частота кадров : 25,000 кадров/сек
Цветовое пространство : YUV
Субдискретизация насыщенности : 4:2:0
Битовая глубина : 8 бит
Тип развёртки : Прогрессивная
Метод сжатия : С потерями
Бит/(Пиксели*Кадры) : 0.286
Размер потока : 1,24 Гбайт (91%)
Библиотека кодирования : XviD 1.2.1 (UTC 2008-12-04)
Аудио
Идентификатор : 1
Формат : AC-3
Формат/Информация : Audio Coding 3
Расширение режима : CM (complete main)
Параметр Endianness формата : Big
Идентификатор кодека : 2000
Продолжительность : 1 ч. 26 м.
Вид битрейта : Постоянный
Битрейт : 192 Кбит/сек
Каналы : 2 канала
Расположение каналов : Front: L R
Частота : 48,0 КГц
Частота кадров : 31,250 кадров/сек (1536 spf)
Метод сжатия : С потерями
Размер потока : 119 Мбайт (8%)
Выравнивание : Разделение по промежуткам
Продолжительность промежутка : 40 мс. (1,00 видеокадр)
Время предзагрузки промежутка : 500 мс.
Download / Скачать

Хотите скачать бесплатно? Зарегистрируйтесь на сайте (ссылка на регистрацию). Pirat.ca - самый быстрый торрент трекер в рунете!

Как скачивать  ·   Что такое торрент  ·   Рейтинг и ограничения

Показать сообщения:    
Ответить на тему

Текущее время: Сегодня 23:14

Часовой пояс: GMT + 4



Вы не можете начинать темы
Вы не можете отвечать на сообщения
Вы не можете редактировать свои сообщения
Вы не можете удалять свои сообщения
Вы не можете голосовать в опросах
Вы не можете прикреплять файлы к сообщениям
Вы не можете скачивать файлы

▼ Вниз