Уважаемый Гость!
Вы можете поддержать проект и зарегистрироваться у наших партнеров - онлайн-стратегия MyLands. При регистрации в игре Вы получите код, который сможете активировать после регистрации на pirat.ca и получить 1000 дублонов.

Ваш код:
df952089819f2c78f80452e14ff159be50fb73a8
 
     

Вкус чудес / Le goût des merveilles (Эрик Беснард / Éric Besnard) [2015 г., драма, мелодрама, комедия, BDRip] MVO

Ответить на тему
 
Автор
Сообщение

Пост 12-Янв-2017 05:22

[Q] 

somik

-Вкус чудес / Le goût des merveilles-- Производство: Франция
Год выпуска: 2015 г.
Жанр: драма, мелодрама, комедия
Продолжительность: 01:40:59
Мировая премьера: 8 ноября 2015
Перевод: Профессиональный (многоголосый, закадровый)
Режиссер: Эрик Беснард / Éric Besnard-В ролях: Виржини Эфира, Бенжамин Лаверн, Люси Фажеде, Léo Lorléac'h, Херв Пьер, Хиам Аббасс, Лоран Бато, Натали Бедер, Френс Дарри, Валентен Мерле-Описание: Луиза Легран живёт с двумя своими детьми в спокойном провинциальном городке. Она не хочет покидать виллу с заветной грушей в саду, где когда-то была так счастлива со своим покойным мужем. Как бы ей не было непросто одной, тайно влюблённый Пол для неё не более, чем хороший друг, помогающий в трудную минуту. Это становится особенно ясно, когда Луиза случайно сбивает на дороге не слишком общительного и замкнутого в себе Пьера. У женщины появляется возможность выбора…-
Качество видео: BDRip
Контейнер: AVI
Видео кодек: XviD
Аудио кодек: AC3
Видео: 720x304 (2.37:1), 24.000 fps, XviD build 50, 1866 kbps avg, 0.35 bit/pixel
Аудио: 48 kHz, AC3 Dolby Digital, 2/0 (L,R) ch, 192 kbps
Cубтитры: отсутствуют
Общее
Полное имя : J:\Вкус чудес Le goût des merveilles (2015)\Vkus CHudes.2015.P.HDRip.[pirat.ca].avi
Формат : AVI
Формат/Информация : Audio Video Interleave
Размер файла : 1,46 Гбайт
Продолжительность : 1 ч. 40 м.
Общий поток : 2068 Кбит/сек
Программа кодирования : VirtualDubMod 1.5.10.2 (build 2540/release)
Библиотека кодирования : VirtualDubMod build 2540/release
Видео
Идентификатор : 0
Формат : MPEG-4 Visual
Профиль формата : Advanced [email protected]
Параметр BVOP формата : 2
Параметр QPel формата : Нет
Параметр GMC формата : Без точки перехода
Параметр матрицы формата : Default (MPEG)
Идентификатор кодека : XVID
Идентификатор кодека/Подсказка : XviD
Продолжительность : 1 ч. 40 м.
Битрейт : 1866 Кбит/сек
Ширина : 720 пикселей
Высота : 304 пикселя
Соотношение сторон : 2,35:1
Частота кадров : 24,000 кадра/сек
Цветовое пространство : YUV
Субдискретизация насыщенности : 4:2:0
Битовая глубина : 8 бит
Тип развёртки : Прогрессивная
Метод сжатия : С потерями
Бит/(Пиксели*Кадры) : 0.355
Размер потока : 1,32 Гбайт (90%)
Библиотека кодирования : XviD 1.2.1 (UTC 2008-12-04)
Аудио
Идентификатор : 1
Формат : AC-3
Формат/Информация : Audio Coding 3
Расширение режима : CM (complete main)
Параметр Endianness формата : Big
Идентификатор кодека : 2000
Продолжительность : 1 ч. 40 м.
Вид битрейта : Постоянный
Битрейт : 192 Кбит/сек
Каналы : 2 канала
Расположение каналов : Front: L R
Частота : 48,0 КГц
Частота кадров : 31,250 кадров/сек (1536 spf)
Метод сжатия : С потерями
Размер потока : 139 Мбайт (9%)
Выравнивание : Разделение по промежуткам
Продолжительность промежутка : 42 мс. (1,00 видеокадр)
Время предзагрузки промежутка : 500 мс.
Download / Скачать

Хотите скачать бесплатно? Зарегистрируйтесь на сайте (ссылка на регистрацию). Pirat.ca - самый быстрый торрент трекер в рунете!

Как скачивать  ·   Что такое торрент  ·   Рейтинг и ограничения

xzxscorpxzx

Легенда

Пост 22-Янв-2017 03:47 (спустя 9 дней)

[Q] 

НА ЛЮБИТЕЛЯ ФИЛЬМ)
[Профиль]  [ЛС] 
Показать сообщения:    
Ответить на тему

Текущее время: Сегодня 08:54

Часовой пояс: GMT + 4



Вы не можете начинать темы
Вы не можете отвечать на сообщения
Вы не можете редактировать свои сообщения
Вы не можете удалять свои сообщения
Вы не можете голосовать в опросах
Вы не можете прикреплять файлы к сообщениям
Вы не можете скачивать файлы

▼ Вниз