ML
     
  Уважаемый Гость!
Вы можете поддержать проект и зарегистрироваться у наших партнеров - онлайн-стратегия MyLands. При регистрации в игре Вы получите код, который сможете активировать после регистрации на pirat.ca и получить 1000 дублонов.

Ваш код:
d4166c03d8c40113e22261cb65fd8601b5054aec
 
     

Мистер Судьба / Mr. Destiny (Джеймс Орр / James Orr) [1990 г., фэнтези, мелодрама, комедия, WEB-DL, 1080p] Dub + Sub (Eng) + Original (Eng)

Ответить на тему
 
Автор
Сообщение

Пост 12-Янв-2017 05:44

[Q] 

somik

-Мистер Судьба / Mr. Destiny-- Производство: США
Год выпуска: 1990 г.
Жанр: фэнтези, мелодрама, комедия
Продолжительность: 01:50:27
Мировая премьера: 12 октября 1990
Дата выхода DVD: 28 июня 2011, «Уолт Дисней Компани СНГ»
Перевод: Профессиональный (полное дублирование) [СВ-Дубль 1996]
Оригинальный аудиопоток: английский
Режиссер: Джеймс Орр / James Orr-В ролях: Джеймс Белуши, Линда Хэмилтон, Майкл Кейн, Джон Ловиц, Рене Руссо, Кортни Кокс, Харт Бокнер, Билл МакКачон, Джей О. Сэндерс, Мори Чайкин, Пэт Корли, Дуглас Сил, Даг Баррон-Описание: У простого служащего Ларри ломается машина. Он останавливается у придорожного кафе и в ожидании помощи решает пропустить стаканчик. Ларри жалуется бармену на свою неудавшуюся жизнь: если бы все сложилось иначе, он был бы более удачлив и счастлив в жизни…
Таинственный человек за стойкой молча выслушал его историю. С этого момента судьба Ларри полностью изменилась. Теперь он — один из управляющих преуспевающей фирмы, у него роскошные автомобили и красавица жена. Но счастливчик начинает понимать, что то, что имел раньше - он не ценил...
Отличная комедия с отличным актерским составом и необычным сюжетом.-
Качество видео: WEB-DL
Контейнер: MKV
Стандарт разрешения: 1080p
Видео кодек: MPEG4 AVC
Аудио кодек: AC3
Видео: 1920х1040, 14000 kbps,
Аудио: 48 kHz, AC3, 2 ch, 192 kbps, CBR
Аудио #2: 48 kHz, AC3, 6 ch, 640 kbps, CBR
Cубтитры: английские
Формат субтитров: softsub (SRT)
Доп. информация о субтитрах: включаемые
Этот фильм о том, что необходимо прислушиваться к своему внутреннему голосу. Внутренний голос никогда тебя не обманет, только он может подсказать тебе лучший твой вариант жизни. И при этом никогда не надо забывать, что всё в наших собственных руках.
Этот фильм стоит, чтобы его посмотреть. Получите только положительные эмоции и информацию к размышлению.
10 из 10.
Общее
Уникальный идентификатор : 251844689707129472729337172480966919405 (0xBD7785DE5C0A8A8B9EC76410FFD604ED)
Полное имя : F:\Мистер Судьба Mr. Destiny (1990) WEB-DL\Mr. Destiny.1990.WEB-DL.1080р.[pirat.ca].mkv
Формат : Matroska
Версия формата : Version 4 / Version 2
Размер файла : 11,7 Гбайт
Продолжительность : 1 ч. 50 м.
Режим общего битрейта : Переменный
Общий поток : 15,1 Мбит/сек
Дата кодирования : UTC 2016-10-03 13:10:16
Программа кодирования : mkvmerge v8.3.0 ('Over the Horizon') 64bit
Библиотека кодирования : libebml v1.3.1 + libmatroska v1.4.2
Видео
Идентификатор : 1
Формат : AVC
Формат/Информация : Advanced Video Codec
Профиль формата : High@L4
Параметр CABAC формата : Да
Параметр ReFrames формата : 4 кадра
Идентификатор кодека : V_MPEG4/ISO/AVC
Продолжительность : 1 ч. 50 м.
Вид битрейта : Переменный
Битрейт : 14,3 Мбит/сек
Максимальный битрейт : 15,0 Мбит/сек
Ширина : 1920 пикселей
Высота : 1040 пикселей
Соотношение сторон : 1,85:1
Режим частоты кадров : Постоянный
Частота кадров : 23,976 (24000/1001) кадра/сек
Цветовое пространство : YUV
Субдискретизация насыщенности : 4:2:0
Битовая глубина : 8 бит
Тип развёртки : Прогрессивная
Бит/(Пиксели*Кадры) : 0.298
Размер потока : 11,0 Гбайт (95%)
Библиотека кодирования : x264 core 148 r2623 d5b2374
Настройки программы : cabac=1 / ref=4 / deblock=1:-1:-1 / analyse=0x3:0x133 / me=umh / subme=9 / psy=1 / psy_rd=1.00:0.15 / mixed_ref=1 / me_range=24 / chroma_me=1 / trellis=2 / 8x8dct=1 / cqm=0 / deadzone=21,11 / fast_pskip=1 / chroma_qp_offset=-3 / threads=32 / lookahead_threads=5 / sliced_threads=0 / nr=150 / decimate=1 / interlaced=0 / bluray_compat=0 / constrained_intra=0 / bframes=8 / b_pyramid=2 / b_adapt=2 / b_bias=0 / direct=3 / weightb=1 / open_gop=0 / weightp=2 / keyint=120 / keyint_min=61 / scenecut=0 / intra_refresh=0 / rc_lookahead=120 / rc=crf / mbtree=1 / crf=18.0 / qcomp=0.60 / qpmin=0 / qpmax=69 / qpstep=4 / vbv_maxrate=15000 / vbv_bufsize=31250 / crf_max=0.0 / nal_hrd=vbr / filler=0 / ip_ratio=1.40 / aq=3:1.00
Язык : English
Default : Да
Forced : Нет
Цветовой диапазон : Limited
Основные цвета : BT.709
Характеристики трансфера : BT.709
Коэффициенты матрицы : BT.709
Аудио #1
Идентификатор : 2
Формат : AC-3
Формат/Информация : Audio Coding 3
Расширение режима : CM (complete main)
Параметр Endianness формата : Big
Идентификатор кодека : A_AC3
Продолжительность : 1 ч. 50 м.
Вид битрейта : Постоянный
Битрейт : 192 Кбит/сек
Каналы : 2 канала
Расположение каналов : Front: L R
Частота : 48,0 КГц
Частота кадров : 31,250 кадров/сек (1536 spf)
Метод сжатия : С потерями
Размер потока : 145 Мбайт (1%)
Заголовок : Дубляж
Язык : Russian
Default : Да
Forced : Нет
Аудио #2
Идентификатор : 3
Формат : E-AC-3
Формат/Информация : Audio Coding 3
Параметр Endianness формата : Big
Идентификатор кодека : A_EAC3
Продолжительность : 1 ч. 50 м.
Вид битрейта : Постоянный
Битрейт : 640 Кбит/сек
Каналы : 6 каналов
Расположение каналов : Front: L C R, Side: L R, LFE
Частота : 48,0 КГц
Частота кадров : 187,500 кадров/сек (256 spf)
Метод сжатия : С потерями
Размер потока : 506 Мбайт (4%)
Заголовок : Оригинал
Язык : English
Default : Нет
Forced : Нет
Текст
Идентификатор : 4
Формат : UTF-8
Идентификатор кодека : S_TEXT/UTF8
Идентификатор кодека/Информация : UTF-8 Plain Text
Продолжительность : 1 ч. 49 м.
Битрейт : 58 бит/сек
Count of elements : 1613
Размер потока : 46,7 Кбайт (0%)
Язык : English
Default : Нет
Forced : Нет
Меню
00:00:00.000 : en:Program Starts / Mr. Destiny
00:13:17.000 : en:"Lose Something Burrows?"
00:21:03.000 : en:"Spilt Milk"
00:29:52.000 : en:"Welcome To Your New Life"
00:41:14.000 : en:Happy Birthday L.J.
00:48:44.000 : en:Tee Time
00:59:32.000 : en:"But L.J."
01:09:51.000 : en:"What Was The Song?"
01:22:52.000 : en:"Larry Who Is She?"
01:29:49.000 : en:Don't Sign Mr. Hansen
01:39:46.000 : en:Happy Birthday Larry
01:44:27.000 : en:End Credits
Download / Скачать

Хотите скачать бесплатно? Зарегистрируйтесь на сайте (ссылка на регистрацию). Pirat.ca - самый быстрый торрент трекер в рунете!

Как скачивать  ·   Что такое торрент  ·   Рейтинг и ограничения

Показать сообщения:    
Ответить на тему

Текущее время: Сегодня 03:41

Часовой пояс: GMT + 4



Вы не можете начинать темы
Вы не можете отвечать на сообщения
Вы не можете редактировать свои сообщения
Вы не можете удалять свои сообщения
Вы не можете голосовать в опросах
Вы не можете прикреплять файлы к сообщениям
Вы не можете скачивать файлы

▼ Вниз