ML
     
  Уважаемый Гость!
Вы можете поддержать проект и зарегистрироваться у наших партнеров - онлайн-стратегия MyLands. При регистрации в игре Вы получите код, который сможете активировать после регистрации на pirat.ca и получить 1000 дублонов.

Ваш код:
2cea854bae06d26241aab7fdd5e780021cf3d3fc
 
     

Анна Герман. Тайна белого ангела / Сезон: 1 / Серии: 10 из 10 (Вальдемар Кшистек, Александр Тименко) [2012 г., драма, биография, BDRip, 720p]

Ответить на тему
 
Автор
Сообщение

Пост 12-Янв-2017 06:04

[Q] 

somik

-Анна Герман. Тайна белого ангела-- Производство: Россия, Star Media
Жанр: драма, биография
Год выпуска: 2012 г.
Продолжительность: 00:50:30
Мировая премьера: 22 февраля 2013
Российская премьера: 3 сентября 2012
Дата выхода DVD: 13 сентября 2012, «Мистерия Звука»
Режиссер: Вальдемар Кшистек, Александр Тименко-В ролях: Йоанна Моро, Мария Порошина, Марат Башаров, Екатерина Васильева, Константин Милованов, Томмазо Раменги, Анна Кирина, Мария Беккер, Игорь Сергеев, Даромир Данил Горденко-Описание: История о певице, которая на пике своей славы попала в автокатастрофу и оказалась прикованной к больничной койке. 12 дней восходящая звезда Анна Герман не приходила в сознание. В те дни ей пришлось снова пережить трагические события своего детства — арест отца, обвиненного в шпионаже, скитания их осиротелой семьи по Средней Азии, смерть маленького брата, войну и побег в Польшу в надежде скрыться от преследователей из НКВД… Первую любовь и первый успех…
Никто из врачей не верил, что она выживет. А если даже это случится, ей пророчили полную неподвижность до конца жизни. Однако, после 12 дней комы небо даровало ей шанс начать жизнь заново. И она совершила невозможное, став «белым ангелом» советской эстрады…-
Качество видео: BDRip
Контейнер: MKV
Стандарт разрешения: 720p
Видео кодек: MPEG4 AVC
Аудио кодек: AC3
Видео: 1280 x 720 (16:9), 5 112 kbps, 25.000 fps, 0.222 b/px
Аудио: АС3, 2 ch, 192 kbps, 48 kHz
Cубтитры: отсутствуют
Любовь, это то, что правит миром…
Никогда не думал, что буду писать какую-либо рецензию. А если бы и стал писать, то это могла быть комедия или, по крайней мере, какой-нибудь ужастик… Однако это оказался сериал и при том российского производства, что удивителяет меня еще больше.
Вобще этот фильм я не планировал смотреть. Как-то случайно при переключении каналов попал на Первый канал, а там была реклама. Решил немного подождать, что будут показывать и оказалось, что это сериал про Анну Герман. К моему стыду про неё я услышал первый раз более менее в сознательном возрасте около года назад, а до этого момента, только обрывками то из интернета, то из телевидения. Но после того, как я увидел программу «Один в один», где её образ представляла Анастасия Стоцкая, мне стало интересно узнать про неё побольше, однако руки так и не добирались до того, чтобы прочитать про неё. И может быть так и не прочитал, если бы не этот фильм.
При поверхностном прочтении её биографии, на той же Википедии, может сложиться впечатление, что певица, у которой было все в Советское время: и поклонники, и гастроли по всему миру, и долгая жизнь в Италии, любящий муж, ребенок — прожила счастливую жизнь.
Однако, через какие испытания она прошла. Испытания, которые ломают людей, делают из них нытиков и слюнтяев, сделали ее еще более сильной, готовой терпеть невыносимые боли, чтобы петь для своего зрителя. Петь так проникновенно и правдиво про жизнь, про любовь, про чувства.
Очень сложная и интересная жизнь. Жизнь достойная только сильного человека.
Честно напишу, что после финальной сцены я заплакал, что последний раз было лет 6 назад. Мне 21 год, а российский сериал заставил меня плакать. И мне стыдно… А может это не стыд, а повод задуматься над тем, что жизнь слишком коротка, чтобы тратить её на чепуху…
Оценка может быть только одна:
10 из 10
Общее
Уникальный идентификатор : 228222475497998493033784356117035593113 (0xABB20CC9CF62BE43B835B622B153AD99)
Полное имя : F:\Анна Герман. Тайна белого ангела [Серии 1-10 из 10] (2012) BDRip 720p\Анна Герман.Тайна белого ангела.2012.BDRip.720p.[pirat.ca]\Серия 01.mkv
Формат : Matroska
Версия формата : Version 4 / Version 2
Размер файла : 1,93 Гбайт
Продолжительность : 50 м.
Общий поток : 5412 Кбит/сек
Название фильма : Анна Герман. Тайна белого ангела (2012) BDRip [720p]
Дата кодирования : UTC 2014-11-14 17:41:11
Программа кодирования : mkvmerge v7.2.0 ('On Every Street') 32bit built on Sep 13 2014 15:42:11
Библиотека кодирования : libebml v1.3.0 + libmatroska v1.4.1
Видео
Идентификатор : 1
Формат : AVC
Формат/Информация : Advanced Video Codec
Профиль формата : [email protected]
Параметр CABAC формата : Да
Параметр ReFrames формата : 6 кадров
Идентификатор кодека : V_MPEG4/ISO/AVC
Продолжительность : 50 м.
Битрейт : 5218 Кбит/сек
Ширина : 1280 пикселей
Высота : 720 пикселей
Соотношение сторон : 16:9
Режим частоты кадров : Постоянный
Частота кадров : 25,000 кадров/сек
Цветовое пространство : YUV
Субдискретизация насыщенности : 4:2:0
Битовая глубина : 8 бит
Тип развёртки : Прогрессивная
Бит/(Пиксели*Кадры) : 0.226
Размер потока : 1,86 Гбайт (96%)
Заголовок : [2012] Анна Герман. Тайна белого ангела [720p] [BDRip]
Библиотека кодирования : x264 core 125 r2200 999b753
Настройки программы : cabac=1 / ref=6 / deblock=1:-3:-3 / analyse=0:0x111 / me=umh / subme=11 / psy=1 / psy_rd=1.00:0.00 / mixed_ref=0 / me_range=32 / chroma_me=1 / trellis=2 / 8x8dct=0 / cqm=0 / deadzone=21,11 / fast_pskip=0 / chroma_qp_offset=-2 / threads=18 / lookahead_threads=3 / sliced_threads=0 / nr=0 / decimate=1 / interlaced=0 / bluray_compat=0 / constrained_intra=0 / bframes=7 / b_pyramid=2 / b_adapt=2 / b_bias=0 / direct=1 / weightb=0 / open_gop=0 / weightp=2 / keyint=240 / keyint_min=24 / scenecut=0 / intra_refresh=0 / rc_lookahead=0 / rc=crf / mbtree=0 / crf=17.0 / qcomp=0.60 / qpmin=0 / qpmax=69 / qpstep=4 / vbv_maxrate=50000 / vbv_bufsize=62500 / crf_max=0.0 / nal_hrd=none / ip_ratio=1.40 / pb_ratio=1.30 / aq=1:0.80
Язык : Russian
Default : Да
Forced : Нет
Аудио
Идентификатор : 2
Формат : AC-3
Формат/Информация : Audio Coding 3
Расширение режима : CM (complete main)
Параметр Endianness формата : Big
Идентификатор кодека : A_AC3
Продолжительность : 50 м.
Вид битрейта : Постоянный
Битрейт : 192 Кбит/сек
Каналы : 2 канала
Расположение каналов : Front: L R
Частота : 48,0 КГц
Частота кадров : 31,250 кадров/сек (1536 spf)
Метод сжатия : С потерями
Размер потока : 69,9 Мбайт (4%)
Заголовок : Оригинальный
Язык : Russian
Default : Да
Forced : Нет
Download / Скачать

Хотите скачать бесплатно? Зарегистрируйтесь на сайте (ссылка на регистрацию). Pirat.ca - самый быстрый торрент трекер в рунете!

Как скачивать  ·   Что такое торрент  ·   Рейтинг и ограничения

Показать сообщения:    
Ответить на тему

Текущее время: Сегодня 02:27

Часовой пояс: GMT + 4



Вы не можете начинать темы
Вы не можете отвечать на сообщения
Вы не можете редактировать свои сообщения
Вы не можете удалять свои сообщения
Вы не можете голосовать в опросах
Вы не можете прикреплять файлы к сообщениям
Вы не можете скачивать файлы

▼ Вниз