Уважаемый Гость!
Вы можете поддержать проект и зарегистрироваться у наших партнеров - онлайн-стратегия MyLands. При регистрации в игре Вы получите код, который сможете активировать после регистрации на pirat.ca и получить 1000 дублонов.

Ваш код:
02bfed0eb1fbe5e508ee0d91293edd477a81558a
 
     

Бен-Гур / Ben-Hur (Тимур Бекмамбетов / Timur Bekmambetov) [2016 г., боевик, драма, приключения, HDRip] Dub [iTunes]

Ответить на тему
 
Автор
Сообщение

Пост 12-Янв-2017 08:04

[Q] 

aleksey99

--Бен-Гур / Ben-Hur--«Брат против брата. Раб против империи»-- Производство: США, LightWorkers Media, Metro-Goldwyn-Mayer (MGM), Paramount Pictures
Год выпуска: 2016 г.
Жанр: боевик, драма, приключения
Продолжительность: 02:04:43--Мировая премьера: 17 августа 2016
Российская премьера: 8 сентября 2016, «Централ Партнершип»--Перевод: Профессиональный (полное дублирование) [iTunes]--Режиссер: Тимур Бекмамбетов / Timur Bekmambetov--В ролях: Джек Хьюстон, Тоби Кеббелл, Родриго Санторо, Назанин Бониади, Айелет Зурер, Йохан Филип Асбек, София Блэк-Д`Элиа, Морган Фримен, Марван Кензари, Мойзес Ариас--Описание: История Бен-Гура, потомка знатного иудейского рода, который был предан своим лучшим другом-римлянином. Проведя много лет в рабстве на римских галерах, Бен-Гур в итоге получает возможность вернуться на родину и отомстить обидчику.-- --Качество видео: HDRip
Контейнер: AVI
Видео кодек: XviD
Аудио кодек: AC3
Видео: 720x304 (2.37:1), 23.976 fps, XviD build 50 ~1987 kbps avg, 0.38 bit/pixel
Аудио: 48 kHz, AC3 Dolby Digital, 3/2 (L,C,R,l,r) + LFE ch, ~384 kbps
Cубтитры: отсутствуют.
Общее
Полное имя : H:\Torrent2\Ben.GURRakaLaddeNN.2O16.D.BDRip.21OOMB.avi
Формат : AVI
Формат/Информация : Audio Video Interleave
Профиль формата : OpenDML
Размер файла : 2,05 Гбайт
Продолжительность : 2 ч. 3 м.
Общий поток : 2383 Кбит/сек
Программа кодирования : VirtualDubMod 1.5.10.2 (build 2540/release)
Библиотека кодирования : VirtualDubMod build 2540/release
Видео
Идентификатор : 0
Формат : MPEG-4 Visual
Профиль формата : Advanced [email protected]
Параметр BVOP формата : 2
Параметр QPel формата : Нет
Параметр GMC формата : Без точки перехода
Параметр матрицы формата : Выборочная
Идентификатор кодека : XVID
Идентификатор кодека/Подсказка : XviD
Продолжительность : 2 ч. 3 м.
Битрейт : 1987 Кбит/сек
Ширина : 720 пикселей
Высота : 304 пикселя
Соотношение сторон : 2,35:1
Частота кадров : 23,976 (24000/1001) кадра/сек
Цветовое пространство : YUV
Субдискретизация насыщенности : 4:2:0
Битовая глубина : 8 бит
Тип развёртки : Прогрессивная
Метод сжатия : С потерями
Бит/(Пиксели*Кадры) : 0.379
Размер потока : 1,71 Гбайт (83%)
Библиотека кодирования : XviD 1.2.1 (UTC 2008-12-04)
Аудио
Идентификатор : 1
Формат : AC-3
Формат/Информация : Audio Coding 3
Расширение режима : CM (complete main)
Параметр Endianness формата : Big
Идентификатор кодека : 2000
Продолжительность : 2 ч. 3 м.
Вид битрейта : Постоянный
Битрейт : 384 Кбит/сек
Каналы : 6 каналов
Расположение каналов : Front: L C R, Side: L R, LFE
Частота : 48,0 КГц
Частота кадров : 31,250 кадров/сек (1536 spf)
Метод сжатия : С потерями
Размер потока : 339 Мбайт (16%)
Выравнивание : Разделение по промежуткам
Продолжительность промежутка : 42 мс. (1,00 видеокадр)
Время предзагрузки промежутка : 500 мс.
Трейлер
Download / Скачать

Хотите скачать бесплатно? Зарегистрируйтесь на сайте (ссылка на регистрацию). Pirat.ca - самый быстрый торрент трекер в рунете!

Как скачивать  ·   Что такое торрент  ·   Рейтинг и ограничения

baltimor30

Корсар

Пост 12-Янв-2017 14:41 (спустя 6 часов)

[Q] 

На любителя, по сути фильм хорош.
[Профиль]  [ЛС] 

BilG

Корсар

Пост 12-Янв-2017 15:32 (спустя 51 минута)

[Q] 

Хорошее качество фильм отличный! rum

_________________
[Профиль]  [ЛС] 

ss80

Гроза морей

36

Пост 12-Янв-2017 21:19 (спустя 5 часов)

[Q] 

Спасибо!!! Раздающему респект!
[Профиль]  [ЛС] 

olmed

Гроза морей

Пост 13-Янв-2017 08:59 (спустя 11 часов)

[Q] 

Спасибо!!!
[Профиль]  [ЛС] 

serded74

Морской Волк

Пост 16-Янв-2017 23:57 (спустя 3 дня)

[Q] 

Нормальный фильм.
[Профиль]  [ЛС] 

UnKnown79

Морской Волк

Пост 17-Янв-2017 22:14 (спустя 22 часа)

[Q] 

Спасибо, то что надо!!!!
[Профиль]  [ЛС] 

Ливень

Корсар

Пост 27-Янв-2017 22:38 (спустя 10 дней)

[Q] 

Хороший фильм, смотрится с интересом Спасибо!!!
[Профиль]  [ЛС] 

alexsey

Корсар

77

Пост 28-Янв-2017 11:52 (спустя 13 часов)

[Q] 

Лови бочку Спасибо!!! хороший фильм
[Профиль]  [ЛС] 

Mosgas666

Шкипер

Пост 20-Фев-2017 16:15 (спустя 23 дня)

[Q] 

Спасибо посмотрим.
[Профиль]  [ЛС] 

the_lame

Флибустьер

Пост 20-Фев-2017 21:17 (спустя 5 часов)

[Q] 

Нормальный фильм, хоть и про евреев, но смотреть можно.
[Профиль]  [ЛС] 

Пост 21-Фев-2017 09:04 (спустя 11 часов)

Топик был перенесен из форума Новинки (HD|DVD|BD| TV|SAT|PDTV| - Rips) в форум Фильмы 2010 - 2016 г.г.
aleksey99
 

I-1vadim

Морской Волк

Пост 05-Мар-2017 00:10 (спустя 12 дней)

[Q] 

Отличная картина! порадовала. Снято качественно, со смыслом и красиво
[Профиль]  [ЛС] 

sztksales

Морской Волк

384

Пост 06-Мар-2017 01:13 (спустя 1 день 1 час)

[Q] 

Такая хрень... Еле досмотрел... Кино дешево снято, сценарий не о чем... Не качайте!

_________________
[Профиль]  [ЛС] 

shelby290

Флибустьер

Пост 18-Мар-2017 18:12 (спустя 12 дней)

[Q] 

Фильм - норм.
[Профиль]  [ЛС] 
Показать сообщения:    
Ответить на тему

Текущее время: Сегодня 22:35

Часовой пояс: GMT + 4



Вы не можете начинать темы
Вы не можете отвечать на сообщения
Вы не можете редактировать свои сообщения
Вы не можете удалять свои сообщения
Вы не можете голосовать в опросах
Вы не можете прикреплять файлы к сообщениям
Вы не можете скачивать файлы

▼ Вниз