ML
     
  Уважаемый Гость!
Вы можете поддержать проект и зарегистрироваться у наших партнеров - онлайн-стратегия MyLands. При регистрации в игре Вы получите код, который сможете активировать после регистрации на pirat.ca и получить 1000 дублонов.

Ваш код:
e45ce7d8f56c618dc58aa1534be2f7e246374b15
 
     

Бен-Гур / Ben-Hur (Тимур Бекмамбетов / Timur Bekmambetov) [2016 г., боевик, драма, приключения, BDRip-AVC] Dub [iTunes]

Ответить на тему
 
Автор
Сообщение

Пост 12-Янв-2017 08:14

[Q] 

aleksey99

--Бен-Гур / Ben-Hur--«Брат против брата. Раб против империи»-- Производство: США, LightWorkers Media, Metro-Goldwyn-Mayer (MGM), Paramount Pictures
Год выпуска: 2016 г.
Жанр: боевик, драма, приключения
Продолжительность: 02:04:43--Мировая премьера: 17 августа 2016
Российская премьера: 8 сентября 2016, «Централ Партнершип»--Перевод: Профессиональный (полное дублирование) [iTunes]--Режиссер: Тимур Бекмамбетов / Timur Bekmambetov--В ролях: Джек Хьюстон, Тоби Кеббелл, Родриго Санторо, Назанин Бониади, Айелет Зурер, Йохан Филип Асбек, София Блэк-Д`Элиа, Морган Фримен, Марван Кензари, Мойзес Ариас--Описание: История Бен-Гура, потомка знатного иудейского рода, который был предан своим лучшим другом-римлянином. Проведя много лет в рабстве на римских галерах, Бен-Гур в итоге получает возможность вернуться на родину и отомстить обидчику.-- --Качество видео: BDRip-AVC
Контейнер: MKV
Видео кодек: AVC/H.264
Аудио кодек: AC3
Видео: AVC, 1024x428 (2.40:1), 2114 kbps, 23,976 fps, 0,201 bpp
Аудио: 48 kHz, AC3 Dolby Digital, 3/2 (L,C,R,l,r) + LFE ch, ~384 kbps
Cубтитры: отсутствуют.
Общее
Уникальный идентификатор : 243716758021987827791320142219851163978 (0xB75A23E59CB1E9B1867FEFE3C3B1694A)
Полное имя : H:\Torrent2\Ben.Hur.2016.BDRip-AVC.mkv
Формат : Matroska
Версия формата : Version 4 / Version 2
Размер файла : 2,17 Гбайт
Продолжительность : 2 ч. 4 м.
Общий поток : 2489 Кбит/сек
Дата кодирования : UTC 2017-01-12 04:06:33
Программа кодирования : mkvmerge v9.0.1 ('Obstacles') 64bit
Библиотека кодирования : libebml v1.3.3 + libmatroska v1.4.4
Видео
Идентификатор : 1
Формат : AVC
Формат/Информация : Advanced Video Codec
Профиль формата : [email protected]
Параметр CABAC формата : Да
Параметр ReFrames формата : 12 кадров
Идентификатор кодека : V_MPEG4/ISO/AVC
Продолжительность : 2 ч. 4 м.
Битрейт : 2114 Кбит/сек
Ширина : 1024 пикселя
Высота : 428 пикселей
Соотношение сторон : 2,40:1
Режим частоты кадров : Постоянный
Частота кадров : 23,976 (24000/1001) кадра/сек
Цветовое пространство : YUV
Субдискретизация насыщенности : 4:2:0
Битовая глубина : 8 бит
Тип развёртки : Прогрессивная
Бит/(Пиксели*Кадры) : 0.201
Размер потока : 1,84 Гбайт (85%)
Библиотека кодирования : x264 core 148 r2638 7599210
Настройки программы : cabac=1 / ref=12 / deblock=1:-2:-1 / analyse=0x3:0x113 / me=umh / subme=11 / psy=1 / psy_rd=0.00:0.15 / mixed_ref=1 / me_range=32 / chroma_me=1 / trellis=2 / 8x8dct=1 / cqm=0 / deadzone=21,11 / fast_pskip=0 / chroma_qp_offset=-3 / threads=6 / lookahead_threads=1 / sliced_threads=0 / nr=0 / decimate=1 / interlaced=0 / bluray_compat=0 / constrained_intra=0 / bframes=12 / b_pyramid=2 / b_adapt=2 / b_bias=0 / direct=1 / weightb=0 / open_gop=0 / weightp=2 / keyint=240 / keyint_min=23 / scenecut=40 / intra_refresh=0 / rc_lookahead=40 / rc=2pass / mbtree=1 / bitrate=2114 / ratetol=1.0 / qcomp=0.70 / qpmin=0 / qpmax=69 / qpstep=4 / cplxblur=20.0 / qblur=0.5 / vbv_maxrate=50000 / vbv_bufsize=65500 / nal_hrd=none / filler=0 / ip_ratio=1.40 / aq=1:1.00
Язык : English
Default : Да
Forced : Нет
Аудио
Идентификатор : 2
Формат : AC-3
Формат/Информация : Audio Coding 3
Расширение режима : CM (complete main)
Параметр Endianness формата : Big
Идентификатор кодека : A_AC3
Продолжительность : 2 ч. 3 м.
Вид битрейта : Постоянный
Битрейт : 384 Кбит/сек
Каналы : 6 каналов
Расположение каналов : Front: L C R, Side: L R, LFE
Частота : 48,0 КГц
Частота кадров : 31,250 кадров/сек (1536 spf)
Метод сжатия : С потерями
Размер потока : 339 Мбайт (15%)
Default : Да
Forced : Нет
Трейлер
Download / Скачать

Хотите скачать бесплатно? Зарегистрируйтесь на сайте (ссылка на регистрацию). Pirat.ca - самый быстрый торрент трекер в рунете!

Как скачивать  ·   Что такое торрент  ·   Рейтинг и ограничения

Мерзавец

Шкипер

Пост 12-Янв-2017 12:20 (спустя 4 часа)

[Q] 

Спасибо!!! Лови бочку гляну, всётаки, сей шедевр
[Профиль]  [ЛС] 

дрюпа

Корсар

158

Пост 13-Янв-2017 05:20 (спустя 16 часов)

[Q] 

не знаю может только у меня,но начиная с 1ч50мин со звуком косячок,опережает картинку
[Профиль]  [ЛС] 

morozov-kostya

Штурман

Пост 13-Янв-2017 08:42 (спустя 3 часа)

[Q] 

782530не знаю может только у меня,но начиная с 1ч50мин со звуком косячок,опережает картинку
Присоединяюсь. очень в конце просмотра это расстроило. А так Автору респект!!! качество норм.
[Профиль]  [ЛС] 

aka__KOT

Штурман

Пост 13-Янв-2017 11:54 (спустя 3 часа)

[Q] 

782548
782530не знаю может только у меня,но начиная с 1ч50мин со звуком косячок,опережает картинку
Присоединяюсь. очень в конце просмотра это расстроило. А так Автору респект!!! качество норм.
Ну тогда подождем исправления.

_________________

[Профиль]  [ЛС] 

bjb13

Шкипер

Пост 13-Янв-2017 15:46 (спустя 3 часа)

[Q] 

Спасибо, по идеи должен быть хорошим Лови бочку
[Профиль]  [ЛС] 
Показать сообщения:    
Ответить на тему

Текущее время: Сегодня 23:16

Часовой пояс: GMT + 4



Вы не можете начинать темы
Вы не можете отвечать на сообщения
Вы не можете редактировать свои сообщения
Вы не можете удалять свои сообщения
Вы не можете голосовать в опросах
Вы не можете прикреплять файлы к сообщениям
Вы не можете скачивать файлы

▼ Вниз