Уважаемый Гость!
Вы можете поддержать проект и зарегистрироваться у наших партнеров - онлайн-стратегия MyLands. При регистрации в игре Вы получите код, который сможете активировать после регистрации на pirat.ca и получить 1000 дублонов.

Ваш код:
e97448b672ad9b92bef9c116971d883e11324603
 
     

Влипли! (Стукнутый) / Zapped! (Роберт Дж. Розенталь / Robert J. Rosenthal) [1982 г., фантастика, комедия, BDRemux, 1080p] AVO (А. Михалев, В. Дохалов) + VO (ОРТ) + Sub (Eng) + Original (Eng)

Ответить на тему
 
Автор
Сообщение

Пост 21-Янв-2017 06:21

[Q] 

somik

-Влипли! (Стукнутый) / Zapped!-- Производство: США, Apple, Rose, City Films, Embassy Pictures
Год выпуска: 1982 г.
Жанр: фантастика, комедия
Продолжительность: 01:38:11
Мировая премьера: 23 июля 1982
Российская премьера: 1991 (ОРТ)
Перевод 1: Авторский (одноголосый, закадровый) [А. Михалев]
Перевод 2: Авторский (одноголосый, закадровый) [В. Дохалов]
Перевод 3: Профессиональный (одноголосый, закадровый) [ОРТ]
Оригинальный аудиопоток: английский
Режиссер: Роберт Дж. Розенталь / Robert J. Rosenthal-В ролях: Скотт Байо, Вилли Эймс, Роберт Мэндан, Фелис Шатер, Скэтмэн Крозерс, Роджер Боуэн, Мьюз Смолл, Грег Брэдфорд, Хилари Бин, Сью Эни Лэнгдон, Хезер Томас, Харди Кейт, Курт Айерс, Мерритт Бутрик, Дженнифер Чаплин, Ирвин Кийес, Генри Форд Робинсон, Дик Балдуцци, Беннетт Лисс, Рон Дьютч, Эдди Дизен, Брайан О`Берн, Эд Бэйки, Жан Лейтон, ЛаВанда Пейдж…-Описание: Легкая комедия о старшекласснике, увлекающемся научными опытами. Он случайно наделил себя телекинетическими способностями, когда его стукнуло по голове после взрыва в лаборатории. Новые возможности круто меняют его жизнь…-
Качество видео: BDRemux
Контейнер: MKV
Стандарт разрешения: 1080p
Видео кодек: MPEG4 AVC
Аудио кодек: AC3
Видео: 1920x1080 / 16:9 / 23.976fps / 28900Kbps / [email protected]
Аудио: AC3 / 48.0 KHz / 2ch. / 192kbps / Rus / AVO
Аудио #2: AC3 / 48.0 KHz / 2ch. / 192kbps / Rus / AVO
Аудио #3: AC3 / 48.0 KHz / 2ch. / 192kbps / Rus / VO
Аудио #4: DTS-HD MA / 48.0 KHz / 2ch / 1856kbps / 24bit / Eng
Cубтитры: английские
Формат субтитров: softsub (SRT)
Доп. информация о субтитрах: включаемые
Сатурн, 1983 год
Номинации (1):
Лучший фэнтези-фильм
Старенькая, уже порядком подзабытая временем школьная комедия из далеких 80-х годов, повествующая о незадачливом старшекласснике, приобретшем в результате несчастного случая удивительные телекинетические способности…
Фильм простенький, незамысловатый и рассчитан исключительно на подростковую аудиторию, испытывающую известные трудности переходного возраста: тут вам и «неожиданная» эрекция, и проблемы во взаимоотношениях с родителями, которые вдобавок считают своего ребенка наркоманом, и нежные поцелуи крупным планом, и обнаженные груди, а в некоторых мимолетных эпизодах даже более интимные подробности…
Хотя сомневаюсь, что этот фильм вызовет интерес у современных зрителей: просто прошло его время. Но он понравится тем, кто любит заглядывать в то далекое прошлое, находить там такие запылившиеся творения, и, несмотря ни на что, наслаждаться просмотром.
7 из 10
Общее
Уникальный идентификатор : 184226529335744662018915195661017447332 (0x8A98BD2B290B9798A18F599C09B47BA4)
Полное имя : J:\Стукнутый!Влипли!Zapped!1982.BDRip-AVC\Zapped!.1982.BDRemux.1080p.[pirat.ca].mkv
Формат : Matroska
Версия формата : Version 2
Размер файла : 21,5 Гбайт
Продолжительность : 1 ч. 38 м.
Режим общего битрейта : Переменный
Общий поток : 31,3 Мбит/сек
Название фильма : Zapped.1982.BDRemux.1080p
Дата кодирования : UTC 2017-01-21 01:32:16
Программа кодирования : mkvmerge v5.3.0 ('I could have danced') built on Feb 9 2012 10:38:07
Библиотека кодирования : libebml v1.2.3 + libmatroska v1.3.0
Видео
Идентификатор : 1
Формат : AVC
Формат/Информация : Advanced Video Codec
Профиль формата : [email protected]
Параметр CABAC формата : Да
Параметр ReFrames формата : 4 кадра
Идентификатор кодека : V_MPEG4/ISO/AVC
Продолжительность : 1 ч. 38 м.
Вид битрейта : Переменный
Максимальный битрейт : 38,0 Мбит/сек
Ширина : 1920 пикселей
Высота : 1080 пикселей
Соотношение сторон : 16:9
Режим частоты кадров : Постоянный
Частота кадров : 23,976 (24000/1001) кадра/сек
Цветовое пространство : YUV
Субдискретизация насыщенности : 4:2:0
Битовая глубина : 8 бит
Тип развёртки : Прогрессивная
Заголовок : Zapped.1982.BDRemux.1080p
Язык : English
Default : Да
Forced : Нет
Statistics Tags Issue : mkvmerge v9.4.0 ('Knurl') 64bit 2016-09-06 09:50:45 / mkvmerge v5.3.0 ('I could have danced') built on Feb 9 2012 10:38:07 2017-01-21 01:32:16
FromStats_BitRate : 28905636
FromStats_Duration : 01:38:11.886000000
FromStats_FrameCount : 141264
FromStats_StreamSize : 21288589307
Аудио #1
Идентификатор : 2
Формат : AC-3
Формат/Информация : Audio Coding 3
Расширение режима : CM (complete main)
Параметр Endianness формата : Big
Идентификатор кодека : A_AC3
Продолжительность : 1 ч. 38 м.
Вид битрейта : Постоянный
Битрейт : 192 Кбит/сек
Каналы : 2 канала
Расположение каналов : Front: L R
Частота : 48,0 КГц
Частота кадров : 31,250 кадров/сек (1536 spf)
Метод сжатия : С потерями
Размер потока : 135 Мбайт (1%)
Заголовок : AVO @ А.Михалев
Язык : Russian
Default : Да
Forced : Нет
Statistics Tags Issue : mkvmerge v9.4.0 ('Knurl') 64bit 2016-09-06 09:50:45 / mkvmerge v5.3.0 ('I could have danced') built on Feb 9 2012 10:38:07 2017-01-21 01:32:16
FromStats_BitRate : 192000
FromStats_Duration : 01:38:11.072000000
FromStats_FrameCount : 184096
FromStats_StreamSize : 141385728
Аудио #2
Идентификатор : 3
Формат : AC-3
Формат/Информация : Audio Coding 3
Расширение режима : CM (complete main)
Параметр Endianness формата : Big
Идентификатор кодека : A_AC3
Продолжительность : 1 ч. 38 м.
Вид битрейта : Постоянный
Битрейт : 192 Кбит/сек
Каналы : 2 канала
Расположение каналов : Front: L R
Частота : 48,0 КГц
Частота кадров : 31,250 кадров/сек (1536 spf)
Метод сжатия : С потерями
Размер потока : 135 Мбайт (1%)
Заголовок : AVO @ В.Дохалов
Язык : Russian
Default : Нет
Forced : Нет
Statistics Tags Issue : mkvmerge v9.4.0 ('Knurl') 64bit 2016-09-06 09:50:45 / mkvmerge v5.3.0 ('I could have danced') built on Feb 9 2012 10:38:07 2017-01-21 01:32:16
FromStats_BitRate : 192000
FromStats_Duration : 01:38:11.072000000
FromStats_FrameCount : 184096
FromStats_StreamSize : 141385728
Аудио #3
Идентификатор : 4
Формат : AC-3
Формат/Информация : Audio Coding 3
Расширение режима : CM (complete main)
Параметр Endianness формата : Big
Идентификатор кодека : A_AC3
Продолжительность : 1 ч. 38 м.
Вид битрейта : Постоянный
Битрейт : 192 Кбит/сек
Каналы : 2 канала
Расположение каналов : Front: L R
Частота : 48,0 КГц
Частота кадров : 31,250 кадров/сек (1536 spf)
Метод сжатия : С потерями
Размер потока : 135 Мбайт (1%)
Заголовок : VO @ ОРТ
Язык : Russian
Default : Нет
Forced : Нет
Statistics Tags Issue : mkvmerge v9.4.0 ('Knurl') 64bit 2016-09-06 09:50:45 / mkvmerge v5.3.0 ('I could have danced') built on Feb 9 2012 10:38:07 2017-01-21 01:32:16
FromStats_BitRate : 192000
FromStats_Duration : 01:38:11.104000000
FromStats_FrameCount : 184097
FromStats_StreamSize : 141386496
Аудио #4
Идентификатор : 5
Формат : DTS
Формат/Информация : Digital Theater Systems
Профиль формата : MA / Core
Режим : 16
Параметр Endianness формата : Big
Идентификатор кодека : A_DTS
Продолжительность : 1 ч. 38 м.
Вид битрейта : Переменный / Постоянный
Битрейт : Неизвестно / 1509 Кбит/сек
Каналы : 2 канала
Расположение каналов : Front: L R
Частота : 48,0 КГц
Частота кадров : 93,750 кадра/сек (512 spf)
Битовая глубина : 24 бит
Метод сжатия : Без потерь / Lossy
Заголовок : Original
Язык : English
Default : Нет
Forced : Нет
Statistics Tags Issue : mkvmerge v9.4.0 ('Knurl') 64bit 2016-09-06 09:50:45 / mkvmerge v5.3.0 ('I could have danced') built on Feb 9 2012 10:38:07 2017-01-21 01:32:16
FromStats_BitRate : 1856087
FromStats_Duration : 01:38:10.912000000
FromStats_FrameCount : 552273
FromStats_StreamSize : 1366756300
Текст
Идентификатор : 6
Формат : UTF-8
Идентификатор кодека : S_TEXT/UTF8
Идентификатор кодека/Информация : UTF-8 Plain Text
Заголовок : Subtitle eng
Язык : English
Default : Нет
Forced : Нет
Statistics Tags Issue : mkvmerge v9.4.0 ('Knurl') 64bit 2016-09-06 09:50:45 / mkvmerge v5.3.0 ('I could have danced') built on Feb 9 2012 10:38:07 2017-01-21 01:32:16
FromStats_BitRate : 61
FromStats_Duration : 01:37:57.642000000
FromStats_FrameCount : 1316
FromStats_StreamSize : 45485
Download / Скачать

Хотите скачать бесплатно? Зарегистрируйтесь на сайте (ссылка на регистрацию). Pirat.ca - самый быстрый торрент трекер в рунете!

Как скачивать  ·   Что такое торрент  ·   Рейтинг и ограничения

Пост 25-Янв-2017 00:32 (спустя 3 дня)

Топик был перенесен из форума DVD / HD с Авторским переводом (Трюм) в форум HD (Фильмы с Авторским переводом)
gross1978
 
Показать сообщения:    
Ответить на тему

Текущее время: Сегодня 21:50

Часовой пояс: GMT + 4



Вы не можете начинать темы
Вы не можете отвечать на сообщения
Вы не можете редактировать свои сообщения
Вы не можете удалять свои сообщения
Вы не можете голосовать в опросах
Вы не можете прикреплять файлы к сообщениям
Вы не можете скачивать файлы

▼ Вниз