Уважаемый Гость!
Вы можете поддержать проект и зарегистрироваться у наших партнеров - онлайн-стратегия MyLands. При регистрации в игре Вы получите код, который сможете активировать после регистрации на pirat.ca и получить 1000 дублонов.

Ваш код:
1fffad29854e0b8faff377cfd14a5891a3c51f47
 
     

Изгои / Outsiders / Сезон 2 / Серии: 1-13 из 13 (Джон Эмиел / Jon Amiel) [2017 г., драма, ... WEB-DLRip] MVO (AlexFilm) + Original (Eng)

Ответить на тему
 
Автор
Сообщение

Пост 26-Янв-2017 12:53

[Q] 

kugesan

Изгои / Outsiders «You have no idea what you're dealing with»- Страна: США
Год выпуска: 2016
Жанр: драма, ...
Продолжительность: ~ 00:45:00 мин серия-Озвучка: Студия
Перевод: Многоголосый закадровый, профессиональный
Оригинальный аудиопоток: английский-Автор перевода: Константин Кривоногов
Роли озвучивали: Наталья Ланц, Маргарита Корш, Михаил Суслов, Роман Сопко, Рустам Шайхиев
Монтаж и сведение звука: Михаил Шорыгин
Постер: Андрей Шапал-Премьера (мир): 26 января 2016
Премьера (РФ): 19 сентября 2016-Режиссер: Адам Бернштейн / Adam Bernstein, Майкл Трим / Michael Trim
Джон Эмиел / Jon Amiel, Адам Бернштейн / Adam Bernstein, Эндрю Бернштейн / Andrew Bernstein, ...
В главных ролях: Даниэль Брикман, Эд Хиви, Джексон Фрейзер, Джоанна МакГинли, Лори Клатшер, Марк Джеффри Миллер, Филлис Соммервиль, Марк Фальво, Эрик Расмуссен ...-Описание фильма:
На протяжении множества поколений три семьи существовали отдельно от всего остального мира на горе Шей в Кентукки. Однако им предстоит встретить серьезных противников как внутри, так и за пределами своего сообщества. Защищая свою землю, Фарреллы перейдут черту, за которой кроются самые ужасные поступки, совершаемые когда-либо человеком. А сохранить это сообщество попытается именно тот человек, который предпринимал бесплодные попытки из него вырваться.
-Качество видео: WEB-DLRip
Формат: AVI
Видеокодек: XviD
Аудиокодек: Mp3
Видео: MPEG-4 Visual at 1402 Кбит/сек, 720 x 400 (1.800) at 23.976 fps, 0.22 Бит/Пиксели
Аудио Rus: MPEG Audio at 128 Кбит/сек, 2 канала, 48,0 КГц |AlexFilm|
Аудио Eng: MPEG Audio at 128 Кбит/сек, 2 канала, 48,0 КГц |Original|
- -
  • И трое спасут тебя
  • Теневая сторона
  • Изгнание
  • Как мы охотимся
  • Мы Кинна
  • Убей или будешь убит
  • Дома, к ужину.
  • Исцеление
  • Преданный до мозга костей
  • Чужая среди чужаков
  • Вылазка
  • То, что нужно сделать
  • Не прерывная цепь
-
Общее
Полное имя : E:\_Сериалы\_Сериалы\Изгои\Outsiders - Season 2 (AlexFilm) WEB-DLRip\Outsiders.s02e01.WEB-DLRip.Rus.Eng.AlexFilm.avi
Формат : AVI
Формат/Информация : Audio Video Interleave
Размер файла : 550 Мбайт
Продолжительность : 45 м. 59 с.
Общий поток : 1672 Кбит/сек
Название фильма : Outsiders 2x01 @ AlexFilm
Программа кодирования : VirtualDubMod 1.5.10.2 (build 2540/release)
Библиотека кодирования : VirtualDubMod build 2540/release
Видео
Идентификатор : 0
Формат : MPEG-4 Visual
Профиль формата : Advanced [email protected]
Параметр BVOP формата : Нет
Параметр QPel формата : Нет
Параметр GMC формата : Без точки перехода
Параметр матрицы формата : Default (MPEG)
Идентификатор кодека : XVID
Идентификатор кодека/Подсказка : XviD
Продолжительность : 45 м. 59 с.
Битрейт : 1402 Кбит/сек
Ширина : 720 пикселей
Высота : 400 пикселей
Соотношение сторон : 16:9
Частота кадров : 23,976 (24000/1001) кадра/сек
Цветовое пространство : YUV
Субдискретизация насыщенности : 4:2:0
Битовая глубина : 8 бит
Тип развёртки : Прогрессивная
Метод сжатия : С потерями
Бит/(Пиксели*Кадры) : 0.203
Размер потока : 461 Мбайт (84%)
Библиотека кодирования : XviD 73
Аудио #1
Идентификатор : 1
Формат : MPEG Audio
Версия формата : Version 1
Профиль формата : Layer 3
Режим : Joint stereo
Расширение режима : MS Stereo
Идентификатор кодека : 55
Идентификатор кодека/Подсказка : MP3
Продолжительность : 45 м. 59 с.
Вид битрейта : Постоянный
Битрейт : 128 Кбит/сек
Каналы : 2 канала
Частота : 48,0 КГц
Метод сжатия : С потерями
Размер потока : 42,1 Мбайт (8%)
Выравнивание : Соединение по промежуткам
Продолжительность промежутка : 42 мс. (1,00 видеокадр)
Время предзагрузки промежутка : 504 мс.
Заголовок : Russian (AlexFilm)
Библиотека кодирования : LAME3.99r
Настройки программы : -m j -V 4 -q 3 -lowpass 18 -b 128
Аудио #2
Идентификатор : 2
Формат : MPEG Audio
Версия формата : Version 1
Профиль формата : Layer 3
Режим : Joint stereo
Расширение режима : MS Stereo
Идентификатор кодека : 55
Идентификатор кодека/Подсказка : MP3
Продолжительность : 45 м. 59 с.
Вид битрейта : Постоянный
Битрейт : 128 Кбит/сек
Каналы : 2 канала
Частота : 48,0 КГц
Метод сжатия : С потерями
Размер потока : 42,1 Мбайт (8%)
Выравнивание : Соединение по промежуткам
Продолжительность промежутка : 42 мс. (1,00 видеокадр)
Время предзагрузки промежутка : 504 мс.
Заголовок : English
Библиотека кодирования : LAME3.90.3
-
-Скриншоты:
-
Раздача ведётся путём добавления новых серий; при каждом добавлении создаётся новый торрент.
Чтобы начать докачку новой серии, пользователям необходимо сделать следующее:
1. остановить скачивание,
2. удалить старый торрент у себя из клиента (старые серии удалять не надо),
3. скачать новый торрент и запустить его у себя в клиенте вместо старого, при этом указать клиенту путь в старую папку, куда и должно происходить скачивание новых серий.
Ваш клиент при этом должен произвести хеширование (проверку) старой папки (если не производит сам - помогите ему сделать это), и будет докачивать только те серии которых у вас ещё нет. Старые серии при этом не удаляются, а продолжают раздаваться!
Eсли вы уже удалили старые серии, то предотвратить повторную закачку старых серий можно, отжав галочку в соответствующих местах при запуске нового торрента. По возможности, желательно не удалять старые серии как можно дольше, чтобы релизёр не столько продолжал раздавать старые серии, а смог сконцентрироваться на новых.
Совет для тех, кто не хочет ждать перехеширования:
Создайте ещё одну папку рядом с папкой сериала (рядом, а не в ней!!!). Каждую новую серию после удачной загрузки копируйте в новую папку так чтобы ваша основная папка всегда была пуста. Когда ваш новый торрент предложит вам закачать все файлы, выберете только последнюю. Для сидирования же укажите адрес новой папки.
Как закачать отдельный файл из торрента или докачать ранее пропущенные файлы торрента!
-
1. Открыть торрент
2. Снять галки с тех файлов торрента, которые мы не хотим закачивать. Оставляем только на нужных нам файлах (файле).
3. Нажать О.К.
В клиенте utorrent
Инструкция
1) Открыть торрент

2) Снять галки с тех файлов торрента, которые мы не хотим закачивать:
* либо вручную, снимая с каждого файла галку( скрин №1)
* либо, нажав кнопку "Снять метки (Select None)", сняв сразу со всех файлов(скрин №2)
№1

№2

Оставляем только на нужных нам файлах (файле).

3)Нажать О.К
-Приятного просмотра!!!-
Download / Скачать

Хотите скачать бесплатно? Зарегистрируйтесь на сайте (ссылка на регистрацию). Pirat.ca - самый быстрый торрент трекер в рунете!

Как скачивать  ·   Что такое торрент  ·   Рейтинг и ограничения



Последний раз редактировалось: kugesan (2017-04-26 22:18), всего редактировалось 13 раз(а)

longibob

Штурман

Пост 27-Янв-2017 01:19 (спустя 12 часов)

[Q] 

наконец то Спасибо!!! Лови бочку
[Профиль]  [ЛС] 

Dmitriy1881

Корсар

Пост 02-Фев-2017 19:10 (спустя 6 дней)

[Q] 

спасибо, давно ждали
[Профиль]  [ЛС] 

kugesan ®

60852

Пост 03-Фев-2017 16:59 (спустя 21 час)

[Q] 

Приятного просмотра!!!

_________________
В мире две бесконечности: вселенная и человеческая глупость - Альберт Эйнштен
«Можно вытащить человека из грязи, но нельзя вытащить грязь из человека»!
[Профиль]  [ЛС] 

Meverik

Шкипер

Пост 23-Фев-2017 22:00 (спустя 20 дней)

[Q] 

спасибо большое, заценим
[Профиль]  [ЛС] 

djos

Корсар

Пост 06-Апр-2017 12:10 (спустя 1 месяц 10 дней)

[Q] 

Супер! Спасибо!!!
[Профиль]  [ЛС] 

kugesan ®

60852

Пост 26-Апр-2017 22:18 (спустя 20 дней)

[Q] 

Приятного просмотра!!!

_________________
В мире две бесконечности: вселенная и человеческая глупость - Альберт Эйнштен
«Можно вытащить человека из грязи, но нельзя вытащить грязь из человека»!
[Профиль]  [ЛС] 

Rei1

Легенда

Пост 28-Апр-2017 15:48 (спустя 1 день 17 часов)

[Q] 

Спасибо! Первая серия понравилась!
[Профиль]  [ЛС] 
Показать сообщения:    
Ответить на тему

Текущее время: Сегодня 15:10

Часовой пояс: GMT + 4



Вы не можете начинать темы
Вы не можете отвечать на сообщения
Вы не можете редактировать свои сообщения
Вы не можете удалять свои сообщения
Вы не можете голосовать в опросах
Вы не можете прикреплять файлы к сообщениям
Вы не можете скачивать файлы

▼ Вниз