Уважаемый Гость!
Вы можете поддержать проект и зарегистрироваться у наших партнеров - онлайн-стратегия MyLands. При регистрации в игре Вы получите код, который сможете активировать после регистрации на pirat.ca и получить 1000 дублонов.

Ваш код:
df03fd5a3037c68836e62bd2d1eda5886967d0c3
 
     

Дама Пик (Павел Лунгин) [2016 г., триллер, WEB-DLRip-AVC] Original (RUS)][iTunes Russia]

Ответить на тему
 
Автор
Сообщение

Пост 30-Янв-2017 13:38

[Q] 

aleksey99

--Дама Пик-- Производство: Россия, Art Pictures Studio, Мастерская Павла Лунгина
Год выпуска: 2016 г.
Жанр: триллер
Продолжительность: 01:59:52--Мировая премьера: 16 ноября 2016
Российская премьера: 17 ноября 2016, «Двадцатый Век Фокс СНГ»--Режиссер: Павел Лунгин--В ролях: Ксения Раппопорт, Иван Янковский, Мария Курденевич, Игорь Миркурбанов, Наталья Коляканова, Алексей Колган, Владимир Симонов, Дмитрий Куличков, Беник Аракелян, Евгений Зеленский--Описание: Оперная дива Софья Майер после долгих лет эмиграции возвращается в Россию. Певица намерена поставить «Пиковую даму» Чайковского на сцене, где когда-то дебютировала. Спектакль, без сомнения, станет событием сезона, а все актеры постановки проснутся знаменитыми. О славе и деньгах мечтает молодой певец оперной труппы Андрей, и «Пиковая дама» для него шанс достичь желаемого. Он готов на всё, чтобы получить роль Германна, и об этом догадывается Софья, оставившая для себя роль Графини. Оперная дива начинает жестокую игру, в которую будут вовлечены все участники спектакля.-- --Качество видео: WEB-DLRip-AVC
Контейнер: MKV
Видео кодек: AVC/H.264
Аудио кодек: AC3
Видео: AVC, 1024x458 (2.25:1), 1898 kbps, 24.000 fps, 0.169 bpp
Аудио: 48 kHz, AC3 Dolby Digital, 3/2 (L,C,R,l,r) + LFE ch, ~384 kbps
Cубтитры: отсутствуют
Общее
Уникальный идентификатор : 244846567293581111864695897539829194709 (0xB833BBCB7292891CB8868F6443765FD5)
Полное имя : H:\Torrent2\2aMa.p1k.2O16.WEB-DLRip-AVC.mkv
Формат : Matroska
Версия формата : Version 4 / Version 2
Размер файла : 1,91 Гбайт
Продолжительность : 1 ч. 59 м.
Общий поток : 2283 Кбит/сек
Дата кодирования : UTC 2017-01-30 09:30:42
Программа кодирования : mkvmerge v9.0.1 ('Obstacles') 64bit
Библиотека кодирования : libebml v1.3.3 + libmatroska v1.4.4
Видео
Идентификатор : 1
Формат : AVC
Формат/Информация : Advanced Video Codec
Профиль формата : [email protected]
Параметр CABAC формата : Да
Параметр ReFrames формата : 12 кадров
Идентификатор кодека : V_MPEG4/ISO/AVC
Продолжительность : 1 ч. 59 м.
Битрейт : 1898 Кбит/сек
Ширина : 1024 пикселя
Высота : 458 пикселей
Соотношение сторон : 2,25:1
Режим частоты кадров : Постоянный
Частота кадров : 24,000 кадра/сек
Цветовое пространство : YUV
Субдискретизация насыщенности : 4:2:0
Битовая глубина : 8 бит
Тип развёртки : Прогрессивная
Бит/(Пиксели*Кадры) : 0.169
Размер потока : 1,59 Гбайт (83%)
Библиотека кодирования : x264 core 148 r2638 7599210
Настройки программы : cabac=1 / ref=12 / deblock=1:-2:-1 / analyse=0x3:0x113 / me=umh / subme=11 / psy=1 / psy_rd=0.00:0.15 / mixed_ref=1 / me_range=32 / chroma_me=1 / trellis=2 / 8x8dct=1 / cqm=0 / deadzone=21,11 / fast_pskip=0 / chroma_qp_offset=-3 / threads=6 / lookahead_threads=1 / sliced_threads=0 / nr=0 / decimate=0 / interlaced=0 / bluray_compat=0 / constrained_intra=0 / bframes=12 / b_pyramid=2 / b_adapt=2 / b_bias=0 / direct=1 / weightb=0 / open_gop=0 / weightp=2 / keyint=240 / keyint_min=24 / scenecut=40 / intra_refresh=0 / rc_lookahead=40 / rc=2pass / mbtree=1 / bitrate=1898 / ratetol=1.0 / qcomp=0.70 / qpmin=0 / qpmax=69 / qpstep=4 / cplxblur=20.0 / qblur=0.5 / vbv_maxrate=50000 / vbv_bufsize=65500 / nal_hrd=none / filler=0 / ip_ratio=1.40 / aq=1:1.00
Default : Да
Forced : Нет
Аудио
Идентификатор : 2
Формат : AC-3
Формат/Информация : Audio Coding 3
Расширение режима : CM (complete main)
Параметр Endianness формата : Big
Идентификатор кодека : A_AC3
Продолжительность : 1 ч. 59 м.
Вид битрейта : Постоянный
Битрейт : 384 Кбит/сек
Каналы : 6 каналов
Расположение каналов : Front: L C R, Side: L R, LFE
Частота : 48,0 КГц
Частота кадров : 31,250 кадров/сек (1536 spf)
Метод сжатия : С потерями
Размер потока : 329 Мбайт (17%)
Язык : Russian
Default : Да
Forced : Нет
Трейлер
Download / Скачать

Хотите скачать бесплатно? Зарегистрируйтесь на сайте (ссылка на регистрацию). Pirat.ca - самый быстрый торрент трекер в рунете!

Как скачивать  ·   Что такое торрент  ·   Рейтинг и ограничения

Pippo48

Флибустьер

Пост 03-Фев-2017 23:41 (спустя 4 дня)

[Q] 

Очень даже ничего фильм, концовку не совсем понял, но лучше смотреть такие фильмы, чем "атаку блогеров" и иже с ними. Советую к просмотру адекватным зрителям с мозгами. Мне понравилось Раздающему респект!
[Профиль]  [ЛС] 

R_O_Z_A

Корсар

Пост 19-Фев-2017 11:35 (спустя 15 дней)

[Q] 

Спасибо, фильм понравился
[Профиль]  [ЛС] 

Sharifulla

Корсар

Пост 21-Фев-2017 23:51 (спустя 2 дня 12 часов)

[Q] 

Одобрямс! хороший фильм, автору спасибо.
[Профиль]  [ЛС] 

clark

Корсар

Пост 28-Фев-2017 13:55 (спустя 6 дней)

[Q] 

глянем спасибо

_________________
Последним смеётся тот, кто стреляет первым.
[Профиль]  [ЛС] 

lightmaster

Гроза морей

Пост 02-Апр-2017 11:03 (спустя 1 месяц 1 день)

[Q] 

Жена уж очень захотела, посмотрю за компанию. Пиковую даму со школы люблю-сравню... Лови бочку
[Профиль]  [ЛС] 

vasdas

Корсар

Пост 18-Сен-2017 23:58 (спустя 5 месяцев 16 дней)

[Q] 

Замечательное кино Супер! Спасибо!!!
[Профиль]  [ЛС] 
Показать сообщения:    
Ответить на тему

Текущее время: Сегодня 17:58

Часовой пояс: GMT + 4



Вы не можете начинать темы
Вы не можете отвечать на сообщения
Вы не можете редактировать свои сообщения
Вы не можете удалять свои сообщения
Вы не можете голосовать в опросах
Вы не можете прикреплять файлы к сообщениям
Вы не можете скачивать файлы

▼ Вниз