Уважаемый Гость!
Вы можете поддержать проект и зарегистрироваться у наших партнеров - онлайн-стратегия MyLands. При регистрации в игре Вы получите код, который сможете активировать после регистрации на pirat.ca и получить 1000 дублонов.

Ваш код:
16877c2cd34ab5ba37e96d44fc94fdd5e20c3df7
 
     

Миллиарды / Billions / Сезон: 2 / Серия: 1-12 из 12 (Анна Боден / Anna Boden) [2017, драма, WEB-Rip] MVO (Baibako) + Original (Eng)

Ответить на тему
 
Автор
Сообщение

Пост 14-Фев-2017 14:08

[Q] 

kugesan

Миллиарды / Billions«Power is the ultimate currency»- Страна: США
Год выпуска: 2017
Жанр: драма
Продолжительность: ~ 00:57:00 мин серия-Перевод: Многоголосый закадровый, профессиональный |Baibako|-Премьера (мир): 1 января 2016, ...
Премьера (РФ): 6 ноября 2016-Режиссер: Анна Боден / Anna Boden, Райан Флек / Ryan Fleck, Нил Бёргер / Neil Burger
В главных ролях: Малин Акерман, Мэгги Сифф, Дэмиэн Льюис, Пол Джаматти, Нэйтан Дарроу, Дэвид Костабайл, Терри Кинни, Келли АуКойн, Тоби Мур, Кондола Рашад-Описание фильма:
В мире власти и сверхприбылей, в самом сердце Нью-Йорка, вовсю идет противостояние. Бобби Аксельрод – амбициозный король хедж-фондов, ведущий рискованные, но блестяще успешные финансовые дела. Чак – принципиальный федеральный прокурор, который давно охотится за Бобби, но во вселенной больших денег совсем другие законы...
-Качество видео: WEB-Rip
Формат: AVI
Видео: Xvid, 720x400 (16:9), ~2000 kbps
Аудио Rus: AC-3, 48,0 kHz, 6 ch, 384 kb/s |Baibako|
Аудио Eng: AC-3, 48,0 kHz, 6 ch, 384 kb/s |Original|
Субтитры: Отсутствуют
Реклама: аудио (два раза, в начале и конце, по 12 сек.)
- -
  • Управление Рисками
  • Прыжки мертвой кошки
  • Оптимальная игра
  • Клятва
  • Валюта
  • Индиан 4
  • Победный круг
  • Царетворец
  • Сик Трансит Империум
  • С тобой или без тебя
  • Время золотой лягушки
  • Шар в руке
-
Общее
Полное имя : E:\_Сериалы\_Сериалы\Миллиарды\Billions.s02.WEBRip.Rus.Eng.BaibaKo\Billions.s02e01.WEBRip.Rus.Eng.BaibaKo.avi
Формат : AVI
Формат/Информация : Audio Video Interleave
Размер файла : 1,12 Гбайт
Продолжительность : 57 м. 29 с.
Общий поток : 2781 Кбит/сек
Программа кодирования : VirtualDubMod 1.5.10.3 | www.virtualdub-fr.org || (build 2550/release)
Библиотека кодирования : VirtualDubMod build 2550/release
Видео
Идентификатор : 0
Формат : MPEG-4 Visual
Профиль формата : Advanced [email protected]
Параметр BVOP формата : 2
Параметр QPel формата : Нет
Параметр GMC формата : Без точки перехода
Параметр матрицы формата : Default (MPEG)
Идентификатор кодека : XVID
Идентификатор кодека/Подсказка : XviD
Продолжительность : 57 м. 29 с.
Битрейт : 1999 Кбит/сек
Ширина : 720 пикселей
Высота : 400 пикселей
Соотношение сторон : 16:9
Частота кадров : 24,000 кадра/сек
Цветовое пространство : YUV
Субдискретизация насыщенности : 4:2:0
Битовая глубина : 8 бит
Тип развёртки : Прогрессивная
Метод сжатия : С потерями
Бит/(Пиксели*Кадры) : 0.289
Размер потока : 822 Мбайт (72%)
Библиотека кодирования : XviD 1.2.1 (UTC 2008-12-04)
Аудио #1
Идентификатор : 1
Формат : AC-3
Формат/Информация : Audio Coding 3
Расширение режима : CM (complete main)
Параметр Endianness формата : Big
Идентификатор кодека : 2000
Продолжительность : 57 м. 29 с.
Вид битрейта : Постоянный
Битрейт : 384 Кбит/сек
Каналы : 6 каналов
Расположение каналов : Front: L C R, Side: L R, LFE
Частота : 48,0 КГц
Частота кадров : 31,250 кадров/сек (1536 spf)
Битовая глубина : 16 бит
Метод сжатия : С потерями
Размер потока : 158 Мбайт (14%)
Выравнивание : Разделение по промежуткам
Продолжительность промежутка : 42 мс. (1,00 видеокадр)
Время предзагрузки промежутка : 500 мс.
Аудио #2
Идентификатор : 2
Формат : AC-3
Формат/Информация : Audio Coding 3
Расширение режима : CM (complete main)
Параметр Endianness формата : Big
Идентификатор кодека : 2000
Продолжительность : 57 м. 29 с.
Вид битрейта : Постоянный
Битрейт : 384 Кбит/сек
Каналы : 6 каналов
Расположение каналов : Front: L C R, Side: L R, LFE
Частота : 48,0 КГц
Частота кадров : 31,250 кадров/сек (1536 spf)
Битовая глубина : 16 бит
Метод сжатия : С потерями
Размер потока : 158 Мбайт (14%)
Выравнивание : Разделение по промежуткам
Продолжительность промежутка : 42 мс. (1,00 видеокадр)
Время предзагрузки промежутка : 500 мс.
-
-
-
1. Открыть торрент
2. Снять галки с тех файлов торрента, которые мы не хотим закачивать. Оставляем только на нужных нам файлах (файле).
3. Нажать О.К.
В клиенте utorrent
Инструкция
1) Открыть торрент

2) Снять галки с тех файлов торрента, которые мы не хотим закачивать:
* либо вручную, снимая с каждого файла галку( скрин №1)
* либо, нажав кнопку "Снять метки (Select None)", сняв сразу со всех файлов(скрин №2)
№1

№2

Оставляем только на нужных нам файлах (файле).

3)Нажать О.К
-Приятного просмотра!!!-
Download / Скачать

Хотите скачать бесплатно? Зарегистрируйтесь на сайте (ссылка на регистрацию). Pirat.ca - самый быстрый торрент трекер в рунете!

Как скачивать  ·   Что такое торрент  ·   Рейтинг и ограничения



Последний раз редактировалось: kugesan (2017-05-09 13:45), всего редактировалось 12 раз(а)

black phantom

Штурман

Пост 26-Фев-2017 00:00 (спустя 11 дней)

[Q] 

Спасибо, автору.
Очень ждал продолжение.
ФИЛЬМ-ОГОНЬ
[Профиль]  [ЛС] 

kugesan ®

60709

Пост 26-Фев-2017 00:09 (спустя 9 минут)

[Q] 

Приятного просмотра!!!

_________________
В мире две бесконечности: вселенная и человеческая глупость - Альберт Эйнштен
«Можно вытащить человека из грязи, но нельзя вытащить грязь из человека»!
[Профиль]  [ЛС] 

dr.senior-ivan

Морской Волк

Пост 21-Мар-2017 09:51 (спустя 23 дня)

[Q] 

Спасибо автору. Новые серии будут?
[Профиль]  [ЛС] 

Rei1

Легенда

Пост 19-Апр-2017 13:29 (спустя 29 дней)

[Q] 

Спасибо автору, отличный сериал!!! Супер!
[Профиль]  [ЛС] 

kugesan ®

60709

Пост 19-Апр-2017 14:22 (спустя 52 минуты)

[Q] 

Приятного просмотра!!!

_________________
В мире две бесконечности: вселенная и человеческая глупость - Альберт Эйнштен
«Можно вытащить человека из грязи, но нельзя вытащить грязь из человека»!
[Профиль]  [ЛС] 

Алоизий

Флибустьер

Пост 20-Апр-2017 19:29 (спустя 1 день 5 часов)

[Q] 

Спасибо!
[Профиль]  [ЛС] 
Показать сообщения:    
Ответить на тему

Текущее время: Сегодня 16:48

Часовой пояс: GMT + 4



Вы не можете начинать темы
Вы не можете отвечать на сообщения
Вы не можете редактировать свои сообщения
Вы не можете удалять свои сообщения
Вы не можете голосовать в опросах
Вы не можете прикреплять файлы к сообщениям
Вы не можете скачивать файлы

▼ Вниз