Уважаемый Гость!
Вы можете поддержать проект и зарегистрироваться у наших партнеров - онлайн-стратегия MyLands. При регистрации в игре Вы получите код, который сможете активировать после регистрации на pirat.ca и получить 1000 дублонов.

Ваш код:
16877c2cd34ab5ba37e96d44fc94fdd5e20c3df7
 
     

Миллиарды / Billions / Сезон: 2 / Серия: 1-12 из 12 (Анна Боден / Anna Boden) [2017, драма, WEB-Rip] MVO (Amedia) + Original (Eng)

Ответить на тему
 
Автор
Сообщение

Пост 14-Фев-2017 14:15

[Q] 

kugesan

Миллиарды / Billions«Power is the ultimate currency»- Страна: США
Год выпуска: 2017
Жанр: драма
Продолжительность: ~ 00:57:00 мин серия-Перевод: Многоголосый закадровый, профессиональный |Amedia|-Премьера (мир): 1 января 2016, ...
Премьера (РФ): 6 ноября 2016-Режиссер: Анна Боден / Anna Boden, Райан Флек / Ryan Fleck, Нил Бёргер / Neil Burger
В главных ролях: Малин Акерман, Мэгги Сифф, Дэмиэн Льюис, Пол Джаматти, Нэйтан Дарроу, Дэвид Костабайл, Терри Кинни, Келли АуКойн, Тоби Мур, Кондола Рашад-Описание фильма:
В мире власти и сверхприбылей, в самом сердце Нью-Йорка, вовсю идет противостояние. Бобби Аксельрод – амбициозный король хедж-фондов, ведущий рискованные, но блестяще успешные финансовые дела. Чак – принципиальный федеральный прокурор, который давно охотится за Бобби, но во вселенной больших денег совсем другие законы...
-Качество видео: WEBRip
Формат: AVI
Видеокодек: XviD
Аудиокодек: MP3
Видео: XviD ~ 1500 Кбит/сек: 720 x 400 (1.800) at 25.000 fps, 0.19 bit/pixel
Аудио Rus: МР3, 48,0 kHz, 2 ch, 128 kb/s |Amedia|
Аудио Eng: МР3, 48,0 kHz, 2 ch, 128 kb/s |Original|
Субтитры: Отсутствуют
Реклама: отсутствует
- -
Общее
Полное имя : E:\_Сериалы\_Сериалы\Миллиарды\Billions (Season 02) Amedia\Billions.S02E01.XviD.Amedia.(qqss44).avi
Формат : AVI
Формат/Информация : Audio Video Interleave
Размер файла : 651 Мбайт
Продолжительность : 55 м. 8 с.
Общий поток : 1650 Кбит/сек
Программа кодирования : VirtualDubMod 1.5.10.3 | www.virtualdub-fr.org || (build 2550/release)
Библиотека кодирования : VirtualDubMod build 2550/release
Видео
Идентификатор : 0
Формат : MPEG-4 Visual
Профиль формата : Advanced [email protected]
Параметр BVOP формата : 2
Параметр QPel формата : Нет
Параметр GMC формата : Без точки перехода
Параметр матрицы формата : Выборочная
Идентификатор кодека : XVID
Идентификатор кодека/Подсказка : XviD
Продолжительность : 55 м. 8 с.
Битрейт : 1380 Кбит/сек
Ширина : 720 пикселей
Высота : 400 пикселей
Соотношение сторон : 16:9
Частота кадров : 25,000 кадров/сек
Цветовое пространство : YUV
Субдискретизация насыщенности : 4:2:0
Битовая глубина : 8 бит
Тип развёртки : Прогрессивная
Метод сжатия : С потерями
Бит/(Пиксели*Кадры) : 0.192
Размер потока : 544 Мбайт (84%)
Библиотека кодирования : XviD 73
Аудио #1
Идентификатор : 1
Формат : MPEG Audio
Версия формата : Version 1
Профиль формата : Layer 3
Режим : Joint stereo
Расширение режима : MS Stereo
Идентификатор кодека : 55
Идентификатор кодека/Подсказка : MP3
Продолжительность : 55 м. 8 с.
Вид битрейта : Постоянный
Битрейт : 128 Кбит/сек
Каналы : 2 канала
Частота : 48,0 КГц
Метод сжатия : С потерями
Размер потока : 50,5 Мбайт (8%)
Выравнивание : Соединение по промежуткам
Продолжительность промежутка : 40 мс. (1,00 видеокадр)
Время предзагрузки промежутка : 504 мс.
Аудио #2
Идентификатор : 2
Формат : MPEG Audio
Версия формата : Version 1
Профиль формата : Layer 3
Режим : Joint stereo
Расширение режима : MS Stereo
Идентификатор кодека : 55
Идентификатор кодека/Подсказка : MP3
Продолжительность : 55 м. 8 с.
Вид битрейта : Постоянный
Битрейт : 128 Кбит/сек
Каналы : 2 канала
Частота : 48,0 КГц
Метод сжатия : С потерями
Размер потока : 50,5 Мбайт (8%)
Выравнивание : Соединение по промежуткам
Продолжительность промежутка : 40 мс. (1,00 видеокадр)
Время предзагрузки промежутка : 504 мс.
-
-
-
1. Открыть торрент
2. Снять галки с тех файлов торрента, которые мы не хотим закачивать. Оставляем только на нужных нам файлах (файле).
3. Нажать О.К.
В клиенте utorrent
Инструкция
1) Открыть торрент

2) Снять галки с тех файлов торрента, которые мы не хотим закачивать:
* либо вручную, снимая с каждого файла галку( скрин №1)
* либо, нажав кнопку "Снять метки (Select None)", сняв сразу со всех файлов(скрин №2)
№1

№2

Оставляем только на нужных нам файлах (файле).

3)Нажать О.К
-Приятного просмотра!!!-
Download / Скачать

Хотите скачать бесплатно? Зарегистрируйтесь на сайте (ссылка на регистрацию). Pirat.ca - самый быстрый торрент трекер в рунете!

Как скачивать  ·   Что такое торрент  ·   Рейтинг и ограничения



Последний раз редактировалось: kugesan (2017-05-09 13:46), всего редактировалось 8 раз(а)

ZektraPlay

Шкипер

Пост 15-Мар-2017 22:04 (спустя 1 месяц 1 день)

[Q] 

Лысый красава! клевая 4 серия! Спасибо!
[Профиль]  [ЛС] 
Показать сообщения:    
Ответить на тему

Текущее время: Сегодня 16:47

Часовой пояс: GMT + 4



Вы не можете начинать темы
Вы не можете отвечать на сообщения
Вы не можете редактировать свои сообщения
Вы не можете удалять свои сообщения
Вы не можете голосовать в опросах
Вы не можете прикреплять файлы к сообщениям
Вы не можете скачивать файлы

▼ Вниз