Уважаемый Гость!
Вы можете поддержать проект и зарегистрироваться у наших партнеров - онлайн-стратегия MyLands. При регистрации в игре Вы получите код, который сможете активировать после регистрации на pirat.ca и получить 1000 дублонов.

Ваш код:
cbfc972db866f9f3df6a6fea4c2549cc4e2f5835
 
     

Джек Ричер / Jack Reacher (Кристофер МакКуорри / Christopher McQuarrie) [2012 г., триллер, боевик, детектив, BDRip, 720р] Dub + AVO (Живов, Володарский, Сербин, Горчаков, Немахов) + original (Eng) + Sub (Rus, Eng)

Ответить на тему
 
Автор
Сообщение

Пост 02-Мар-2017 00:15

[Q] 

gross1978

Джек Ричер / Jack Reacher
«У закона есть пределы. У него их нет»- Год выпуска: 2012
Производство: США, Paramount Pictures
Жанр: триллер, боевик, детектив
Продолжительность: 02:10:24--Перевод 1: Профессиональный (полное дублирование) Лицензия
Перевод 2: Авторский (одноголосый, закадровый) Живов
Перевод 3: Авторский (одноголосый, закадровый) Володарский
Перевод 4: Авторский (одноголосый, закадровый) Сербин
Перевод 5: Авторский (одноголосый, закадровый) Горчаков
Перевод 6: Авторский (одноголосый, закадровый) Немахов
Оригинальный аудиопоток: английский
Субтитры: русские (форсированные, полные), Английские (полные SDH SDH-COLORED) - Softsub (SRT)--Режиссер: Кристофер МакКуорри / Christopher McQuarrie--В ролях: Том Круз, Розамунд Пайк, Ричард Дженкинс, Вернер Херцог, Дэвид Ойелоуо, Роберт Дювалл, Джей Кортни, Владимир Сизов, Джозеф Сикора, Майкл Рэймонд-Джеймс, Алексия Фаст, Владимир Сизов, Джош Хелман, Джеймс Мартин Келли, Дилан Кассман, Денвер Милорд, Сьюзэн Анджело, Джулия Йоркс, Николь Скотт, Делайла Пикарт, Джо Койл, Алисия Мартон, Питер Гэннон, Дэвид Уэйлен, Тристан Элма--Описание: Профессиональный снайпер убивает нескольких случайных прохожих. Его находят и арестовывают. Все улики указывают на него. На допросе вместо признания он пишет имя — Джек Ричер. Больше обвиняемый не может ничего сказать, поскольку после избиения заключёнными впадает в кому. Загадочный Джек Ричер появляется незамедлительно. Что теперь будет с убийцей?--IMDB , КиноПоиск--Качество видео: BDRip, 720p
Контейнер: MKV
Видео кодек: h.264
Аудио кодек: AC3
Видео: MPEG4 Video (H264) 1280x544 23.976fps, ~4 003 Kbps, 0.240 bit/pixel--Аудио #1: 48 kHz, AC3 Dolby Digital, 3/2 (L,C,R,l,r) + LFE ch, ~640 kbps - Дубляж
Аудио #2: 48 kHz, AC3 Dolby Digital, 3/2 (L,C,R,l,r) + LFE ch, ~640 kbps - Живов
Аудио #3: 48 kHz, AC3 Dolby Digital, 3/2 (L,C,R,l,r) + LFE ch, ~640 kbps - Володарский
Аудио #4: 48 kHz, AC3 Dolby Digital, 3/2 (L,C,R,l,r) + LFE ch, ~640 kbps - Сербин
Аудио #5: 48 kHz, AC3 Dolby Digital, 3/2 (L,C,R,l,r) + LFE ch, ~640 kbps - Горчаков
Аудио #6: 48 kHz, AC3 Dolby Digital, 3/2 (L,C,R,l,r) + LFE ch, ~640 kbps - Немахов
Аудио #7: 48 kHz, AC3 Dolby Digital, 3/2 (L,C,R,l,r) + LFE ch, ~640 kbps - оригинал (eng)
АВТОР РИПА:
Цитата
За перевод Володарского большое спасибо пользователям форума hdtracker.
За перевод Сербина и Немахова спасибо е180.
Перевод Горчаков - совместные проект e180 и hdtracker.
x264 [info]: frame I:1734 Avg QP:13.86 size:124197
x264 [info]: frame P:38472 Avg QP:15.18 size: 48288
x264 [info]: frame B:147391 Avg QP:17.69 size: 13989
x264 [info]: consecutive B-frames: 1.9% 4.0% 6.2% 11.3% 14.3% 45.6% 10.0% 2.4% 2.5% 1.8%
x264 [info]: mb I I16..4: 17.3% 67.6% 15.1%
x264 [info]: mb P I16..4: 0.6% 15.4% 0.9% P16..4: 25.3% 35.9% 17.5% 3.4% 0.2% skip: 0.9%
x264 [info]: mb B I16..4: 0.0% 1.5% 0.1% B16..8: 35.2% 25.1% 5.6% direct: 4.8% skip:27.6% L0:43.0% L1:44.0% BI:13.0%
x264 [info]: 8x8 transform intra:88.3% inter:48.7%
x264 [info]: coded y,uvDC,uvAC intra: 98.4% 86.2% 77.9% inter: 26.9% 15.7% 5.8%
x264 [info]: i16 v,h,dc,p: 6% 5% 28% 62%
x264 [info]: i8 v,h,dc,ddl,ddr,vr,hd,vl,hu: 9% 9% 18% 9% 11% 11% 11% 10% 12%
x264 [info]: i4 v,h,dc,ddl,ddr,vr,hd,vl,hu: 9% 8% 4% 10% 16% 15% 14% 11% 13%
x264 [info]: i8c dc,h,v,p: 51% 21% 13% 14%
x264 [info]: Weighted P-Frames: Y:8.8% UV:5.9%
x264 [info]: ref P L0: 42.2% 8.1% 18.9% 6.9% 6.7% 4.5% 4.6% 2.1% 2.3% 1.7% 1.9% 0.2% 0.0%
x264 [info]: ref B L0: 70.1% 12.0% 5.8% 3.4% 2.5% 2.3% 1.7% 1.1% 0.6% 0.3%
x264 [info]: ref B L1: 93.2% 6.8%
x264 [info]: kb/s:4227.78
encoded 187597 frames, 4.21 fps, 4227.78 kb/s, duration 12:22:51.89
General
Unique ID : 243624583809033642039523056829025617629 (0xB748635B7BA4E053A4314523A1E606DD)
Complete name : G:\фильмы HD\! новое\Джек Ричер (Jack Reacher, 2012, BDRip, 720p) dub-Jivov-Volodarski-Serbin-Gorchakov-Nemahov-eng.mkv
Format : Matroska
Format version : Version 2
File size : 7.94 GiB
Duration : 2h 11mn
Overall bit rate : 8 655 Kbps
Movie name : rip by Gross
Encoded date : UTC 2017-02-04 15:47:47
Writing application : mkvmerge v4.7.0 ('Just Like You Imagined') сборка от Apr 21 2011 01:13:14
Writing library : libebml v1.2.0 + libmatroska v1.1.0
Video
ID : 1
Format : AVC
Format/Info : Advanced Video Codec
Format profile : [email protected]
Format settings, CABAC : Yes
Format settings, ReFrames : 11 frames
Codec ID : V_MPEG4/ISO/AVC
Duration : 2h 11mn
Bit rate : 4 003 Kbps
Width : 1 280 pixels
Height : 544 pixels
Display aspect ratio : 2.35:1
Frame rate mode : Constant
Frame rate : 23.976 fps
Color space : YUV
Chroma subsampling : 4:2:0
Bit depth : 8 bits
Scan type : Progressive
Bits/(Pixel*Frame) : 0.240
Stream size : 3.67 GiB (46%)
Writing library : x264 core 148 r2638kMod 7599210
Encoding settings : cabac=1 / ref=11 / deblock=1:-3:-3 / analyse=0x3:0x133 / me=umh / subme=11 / psy=1 / fade_compensate=0.00 / psy_rd=1.00:0.05 / mixed_ref=1 / me_range=32 / chroma_me=1 / trellis=2 / 8x8dct=1 / cqm=0 / deadzone=21,11 / fast_pskip=0 / chroma_qp_offset=-3 / threads=9 / lookahead_threads=2 / sliced_threads=0 / nr=0 / decimate=1 / interlaced=0 / bluray_compat=0 / constrained_intra=0 / fgo=0 / bframes=9 / b_pyramid=2 / b_adapt=2 / b_bias=0 / direct=1 / weightb=1 / open_gop=0 / weightp=2 / keyint=250 / keyint_min=23 / scenecut=40 / intra_refresh=0 / rc=crf / mbtree=0 / crf=17.0000 / qcomp=0.60 / qpmin=0 / qpmax=69 / qpstep=4 / ip_ratio=1.40 / pb_ratio=1.30 / aq=1:1.00
Language : English
Default : Yes
Forced : No
Audio #1
ID : 2
Format : AC-3
Format/Info : Audio Coding 3
Mode extension : CM (complete main)
Format settings, Endianness : Big
Codec ID : A_AC3
Duration : 2h 11mn
Bit rate mode : Constant
Bit rate : 640 Kbps
Channel(s) : 6 channels
Channel positions : Front: L C R, Side: L R, LFE
Sampling rate : 48.0 KHz
Bit depth : 16 bits
Compression mode : Lossy
Stream size : 601 MiB (7%)
Title : dub (BD CEE)
Language : Russian
Default : Yes
Forced : Yes
Audio #2
ID : 3
Format : AC-3
Format/Info : Audio Coding 3
Mode extension : CM (complete main)
Format settings, Endianness : Big
Codec ID : A_AC3
Duration : 2h 11mn
Bit rate mode : Constant
Bit rate : 640 Kbps
Channel(s) : 6 channels
Channel positions : Front: L C R, Side: L R, LFE
Sampling rate : 48.0 KHz
Bit depth : 16 bits
Compression mode : Lossy
Stream size : 601 MiB (7%)
Title : A1 (Jivov)
Language : Russian
Default : No
Forced : No
Audio #3
ID : 4
Format : AC-3
Format/Info : Audio Coding 3
Mode extension : CM (complete main)
Format settings, Endianness : Big
Codec ID : A_AC3
Duration : 2h 11mn
Bit rate mode : Constant
Bit rate : 640 Kbps
Channel(s) : 6 channels
Channel positions : Front: L C R, Side: L R, LFE
Sampling rate : 48.0 KHz
Bit depth : 16 bits
Compression mode : Lossy
Stream size : 601 MiB (7%)
Title : A1 (Volodarsky)
Language : Russian
Default : No
Forced : No
Audio #4
ID : 5
Format : AC-3
Format/Info : Audio Coding 3
Mode extension : CM (complete main)
Format settings, Endianness : Big
Codec ID : A_AC3
Duration : 2h 11mn
Bit rate mode : Constant
Bit rate : 640 Kbps
Channel(s) : 6 channels
Channel positions : Front: L C R, Side: L R, LFE
Sampling rate : 48.0 KHz
Bit depth : 16 bits
Compression mode : Lossy
Stream size : 601 MiB (7%)
Title : A1 (Serbin)
Language : Russian
Default : No
Forced : No
Audio #5
ID : 6
Format : AC-3
Format/Info : Audio Coding 3
Mode extension : CM (complete main)
Format settings, Endianness : Big
Codec ID : A_AC3
Duration : 2h 11mn
Bit rate mode : Constant
Bit rate : 640 Kbps
Channel(s) : 6 channels
Channel positions : Front: L C R, Side: L R, LFE
Sampling rate : 48.0 KHz
Bit depth : 16 bits
Compression mode : Lossy
Stream size : 601 MiB (7%)
Title : A1 (Gorchakov)
Language : Russian
Default : No
Forced : No
Audio #6
ID : 7
Format : AC-3
Format/Info : Audio Coding 3
Mode extension : CM (complete main)
Format settings, Endianness : Big
Codec ID : A_AC3
Duration : 2h 11mn
Bit rate mode : Constant
Bit rate : 640 Kbps
Channel(s) : 6 channels
Channel positions : Front: L C R, Side: L R, LFE
Sampling rate : 48.0 KHz
Bit depth : 16 bits
Compression mode : Lossy
Stream size : 601 MiB (7%)
Title : A1 (Nemahov)
Language : Russian
Default : No
Forced : No
Audio #7
ID : 8
Format : AC-3
Format/Info : Audio Coding 3
Mode extension : CM (complete main)
Format settings, Endianness : Big
Codec ID : A_AC3
Duration : 2h 11mn
Bit rate mode : Constant
Bit rate : 640 Kbps
Channel(s) : 6 channels
Channel positions : Front: L C R, Side: L R, LFE
Sampling rate : 48.0 KHz
Bit depth : 16 bits
Compression mode : Lossy
Stream size : 601 MiB (7%)
Title : original
Language : English
Default : No
Forced : No
Text #1
ID : 9
Format : UTF-8
Codec ID : S_TEXT/UTF8
Codec ID/Info : UTF-8 Plain Text
Title : Forced
Language : Russian
Default : Yes
Forced : No
Text #2
ID : 10
Format : UTF-8
Codec ID : S_TEXT/UTF8
Codec ID/Info : UTF-8 Plain Text
Title : R5
Language : Russian
Default : No
Forced : No
Text #3
ID : 11
Format : UTF-8
Codec ID : S_TEXT/UTF8
Codec ID/Info : UTF-8 Plain Text
Title : Full
Language : English
Default : No
Forced : No
Text #4
ID : 12
Format : UTF-8
Codec ID : S_TEXT/UTF8
Codec ID/Info : UTF-8 Plain Text
Title : SDH
Language : English
Default : No
Forced : No
Text #5
ID : 13
Format : UTF-8
Codec ID : S_TEXT/UTF8
Codec ID/Info : UTF-8 Plain Text
Title : SDH-COLORED
Language : English
Default : No
Forced : No
Text #6
ID : 14
Format : UTF-8
Codec ID : S_TEXT/UTF8
Codec ID/Info : UTF-8 Plain Text
Title : Commentary (director Christopher McQuarrie and actor Tom Cruise)
Language : English
Default : No
Forced : No
Text #7
ID : 15
Format : UTF-8
Codec ID : S_TEXT/UTF8
Codec ID/Info : UTF-8 Plain Text
Title : Commentary (composer Joe Kraemer)
Language : English
Default : No
Forced : No
Menu
00:00:00.000 : en:Chapter 01
00:08:21.667 : en:Chapter 02
00:14:19.900 : en:Chapter 03
00:21:51.685 : en:Chapter 04
00:30:02.342 : en:Chapter 05
00:35:46.477 : en:Chapter 06
00:41:22.980 : en:Chapter 07
00:49:08.111 : en:Chapter 08
00:55:36.291 : en:Chapter 09
01:01:44.117 : en:Chapter 10
01:08:11.295 : en:Chapter 11
01:16:56.320 : en:Chapter 12
01:23:51.526 : en:Chapter 13
01:30:20.164 : en:Chapter 14
01:38:01.584 : en:Chapter 15
01:45:08.927 : en:Chapter 16
01:53:39.312 : en:Chapter 17
02:01:50.469 : en:Chapter 18
- -
Download / Скачать

Хотите скачать бесплатно? Зарегистрируйтесь на сайте (ссылка на регистрацию). Pirat.ca - самый быстрый торрент трекер в рунете!

Как скачивать  ·   Что такое торрент  ·   Рейтинг и ограничения

gross1978 ®

7580

Пост 02-Мар-2017 22:09 (спустя 21 час)

[Q] 

Вторя часть тут: Джек Ричер 2: Никогда не возвращайся / Jack Reacher: Never Go Back (Эдвард Цвик / Edward Zwick) [2016 г., боевик, триллер, криминал, детектив, приключения, BDRip] Dub [Лицензия] + Original (Eng) + Sub (Rus, Eng) (пост)

_________________
Употребляйте правильно слова, и вы избавите мир от половины недоразумений (Р.Декарт).
Если у Вас есть переводы в авторском, которых нет в моих раздачах и желание ими поделиться, пишите, добавим:)
[Профиль]  [ЛС] 

Voldun

Корсар

359

Пост 05-Мар-2017 21:55 (спустя 2 дня 23 часа)

[Q] 

Смотрел только в Сербине и Горчакове. В последнем понравилось чуть больше. Интересно мнение членов пиратского братства, кто смотрел в иных переводах отзовитесь, чей понравился !
Пиратка рулез!!!
[Профиль]  [ЛС] 
Показать сообщения:    
Ответить на тему

Текущее время: Сегодня 07:51

Часовой пояс: GMT + 4



Вы не можете начинать темы
Вы не можете отвечать на сообщения
Вы не можете редактировать свои сообщения
Вы не можете удалять свои сообщения
Вы не можете голосовать в опросах
Вы не можете прикреплять файлы к сообщениям
Вы не можете скачивать файлы

▼ Вниз