Уважаемый Гость!
Вы можете поддержать проект и зарегистрироваться у наших партнеров - онлайн-стратегия MyLands. При регистрации в игре Вы получите код, который сможете активировать после регистрации на pirat.ca и получить 1000 дублонов.

Ваш код:
adb7b2334ac375df253962bc5c55e1885dba60ce
 
     

Мы обычные медведи / We Bare Bears / Сезон: 3 / Серии: 1-18 из 29 (Мэнни Эрнандес / Manny Hernandez) [2017 г., мультфильм, фэнтези, комедия, семейный, WEB-DL 1080p] MVO (AlexFilm) + Original (Eng) [Обновляемая]

Ответить на тему
 
Автор
Сообщение

Пост 10-Апр-2017 23:29

[Q] 

kugesan

Мы обычные медведи
We Bare Bears
- Страна: США
Год выпуска: 2017
Жанр: мультфильм, фэнтези, комедия, семейный
Продолжительность: ~ 00:11:00 мин серия-Озвучка: Студия
Перевод: Многоголосый закадровый, профессиональный
Оригинальный аудиопоток: английский-Перевод: Константин Кривоногов
Озвучка: Татьяна Манетина, Роман Сопко, Михаил Шорыгин, Михаил Суслов
Монтаж и сведение звука: Михаил Шорыгин
Постер: Андрей Шапал-Премьера (мир): 27 июля 2015-Режиссер: Мэнни Эрнандес / Manny Hernandez
В главных ролях: Деметри Мартин, Эрик Эдельштейн, Бобби Мойнахан, Кит Фергюсон, Эди Паттерсон, Сэм Лаваньино, Дункан Джойнер, Кайла Рэй Ковалески, Джейсон Ли, Kyler Spears, ...-Описание фильма:
Три брата-медведя Гризли, Панда и Белый отчаянно пытаются влиться в общество людей, однако покупая еду, борясь за интернет-славу или заводя друзей, им не всегда удаётся соответствовать людской природе. Но братья всегда готовы прийти друг другу на выручку.-Качество видео: WEB-DL 1080p
Контейнер: MKV
Видео кодек: AVC ([email protected])
Аудио кодек: AC-3
Видео: AVC at 5137 Кбит/сек: 1920 x 1080 (1.778) at 23.976 fps
Аудио Rus: AC-3 at 192 Кбит/сек: 2 канала, 48,0 КГц |AlexFilm|
Аудио Eng: AC-3 at 192 Кбит/сек: 2 канала, 48,0 КГц |Original|
Cубтитры: отсутствуют
-
-
  • Гризли: кино
  • Управление гневом
  • Сто долларов
  • Профессор Лампвик
  • Ральф
  • Планета медведей
  • Кофе-пещера
  • Большая ступня Чарли
  • Демон
  • Творчество Панды
  • Алые рэйнджеры
  • Брат Люси
  • Ярмарка
  • Частное озеро
  • Обед стейпс
  • Поездка
  • Летняя любовь
  • Котенок
-
Общее
Уникальный идентификатор : 176591642754586774674407568826501457548 (0x84DA5032868C850986225ACE5C2C668C)
Полное имя : E:\_Сериалы\_Сериалы\Мы обычные медведи\We Bare Bears - Season 3 (AlexFilm) WEB-DL 1080p\We.Bare.Bears.S03E01.Grizzly.the.Movie.WEB-DL.1080p.Rus.Eng.AlexFilm.mkv
Формат : Matroska
Версия формата : Version 4 / Version 2
Размер файла : 454 Мбайт
Продолжительность : 11 м. 15 с.
Общий поток : 5633 Кбит/сек
Название фильма : We Bare Bears 3x01 @ AlexFilm
Дата кодирования : UTC 2017-04-10 13:23:14
Программа кодирования : mkvmerge v7.1.0 ('Good Love') 64bit built on Jul 27 2014 13:06:55
Библиотека кодирования : libebml v1.3.0 + libmatroska v1.4.1
Видео
Идентификатор : 1
Формат : AVC
Формат/Информация : Advanced Video Codec
Профиль формата : [email protected]
Параметр CABAC формата : Да
Параметр ReFrames формата : 4 кадра
Идентификатор кодека : V_MPEG4/ISO/AVC
Продолжительность : 11 м. 15 с.
Битрейт : 5137 Кбит/сек
Ширина : 1920 пикселей
Высота : 1080 пикселей
Соотношение сторон : 16:9
Режим частоты кадров : Постоянный
Частота кадров : 23,976 (24000/1001) кадра/сек
Цветовое пространство : YUV
Субдискретизация насыщенности : 4:2:0
Битовая глубина : 8 бит
Тип развёртки : Прогрессивная
Бит/(Пиксели*Кадры) : 0.103
Размер потока : 414 Мбайт (91%)
Язык : English
Default : Да
Forced : Нет
Цветовой диапазон : Limited
Основные цвета : BT.709
Характеристики трансфера : BT.709
Коэффициенты матрицы : BT.709
Аудио #1
Идентификатор : 2
Формат : AC-3
Формат/Информация : Audio Coding 3
Параметр Endianness формата : Big
Идентификатор кодека : A_AC3
Продолжительность : 11 м. 15 с.
Вид битрейта : Постоянный
Битрейт : 192 Кбит/сек
Каналы : 2 канала
Расположение каналов : Front: L R
Частота : 48,0 КГц
Частота кадров : 31,250 кадров/сек (1536 spf)
Битовая глубина : 16 бит
Метод сжатия : С потерями
Размер потока : 15,5 Мбайт (3%)
Заголовок : DD2.0 AlexFilm
Язык : Russian
ServiceKind/String : Complete Main
Default : Да
Forced : Нет
Аудио #2
Идентификатор : 3
Формат : AC-3
Формат/Информация : Audio Coding 3
Параметр Endianness формата : Big
Идентификатор кодека : A_AC3
Продолжительность : 11 м. 15 с.
Вид битрейта : Постоянный
Битрейт : 192 Кбит/сек
Каналы : 2 канала
Расположение каналов : Front: L R
Частота : 48,0 КГц
Частота кадров : 31,250 кадров/сек (1536 spf)
Битовая глубина : 16 бит
Метод сжатия : С потерями
Размер потока : 15,5 Мбайт (3%)
Заголовок : DD2.0 Original
Язык : English
ServiceKind/String : Complete Main
Default : Нет
Forced : Нет
-
-Скриншоты:
-
Раздача ведётся путём добавления новых серий; при каждом добавлении создаётся новый торрент.
Чтобы начать докачку новой серии, пользователям необходимо сделать следующее:
1. остановить скачивание,
2. удалить старый торрент у себя из клиента (старые серии удалять не надо),
3. скачать новый торрент и запустить его у себя в клиенте вместо старого, при этом указать клиенту путь в старую папку, куда и должно происходить скачивание новых серий.
Ваш клиент при этом должен произвести хеширование (проверку) старой папки (если не производит сам - помогите ему сделать это), и будет докачивать только те серии которых у вас ещё нет. Старые серии при этом не удаляются, а продолжают раздаваться!
Eсли вы уже удалили старые серии, то предотвратить повторную закачку старых серий можно, отжав галочку в соответствующих местах при запуске нового торрента. По возможности, желательно не удалять старые серии как можно дольше, чтобы релизёр не столько продолжал раздавать старые серии, а смог сконцентрироваться на новых.
Совет для тех, кто не хочет ждать перехеширования:
Создайте ещё одну папку рядом с папкой сериала (рядом, а не в ней!!!). Каждую новую серию после удачной загрузки копируйте в новую папку так чтобы ваша основная папка всегда была пуста. Когда ваш новый торрент предложит вам закачать все файлы, выберете только последнюю. Для сидирования же укажите адрес новой папки.
Как закачать отдельный файл из торрента или докачать ранее пропущенные файлы торрента!
-
1. Открыть торрент
2. Снять галки с тех файлов торрента, которые мы не хотим закачивать. Оставляем только на нужных нам файлах (файле).
3. Нажать О.К.
В клиенте utorrent
Инструкция
1) Открыть торрент

2) Снять галки с тех файлов торрента, которые мы не хотим закачивать:
* либо вручную, снимая с каждого файла галку( скрин №1)
* либо, нажав кнопку "Снять метки (Select None)", сняв сразу со всех файлов(скрин №2)
№1

№2

Оставляем только на нужных нам файлах (файле).

3)Нажать О.К
-Приятного просмотра!!!-
Download / Скачать

Хотите скачать бесплатно? Зарегистрируйтесь на сайте (ссылка на регистрацию). Pirat.ca - самый быстрый торрент трекер в рунете!

Как скачивать  ·   Что такое торрент  ·   Рейтинг и ограничения



Последний раз редактировалось: kugesan (2017-10-12 12:50), всего редактировалось 4 раз(а)

Gravida

Гроза морей

1852

Пост 09-Июн-2017 20:33 (спустя 1 месяц 28 дней)

[Q] 

Спасибо от детищков, смотрят и не терроризируют родителей в это время_ ca
[Профиль]  [ЛС] 
Показать сообщения:    
Ответить на тему

Текущее время: Сегодня 16:58

Часовой пояс: GMT + 4



Вы не можете начинать темы
Вы не можете отвечать на сообщения
Вы не можете редактировать свои сообщения
Вы не можете удалять свои сообщения
Вы не можете голосовать в опросах
Вы не можете прикреплять файлы к сообщениям
Вы не можете скачивать файлы

▼ Вниз