ML
     
  Уважаемый Гость!
Вы можете поддержать проект и зарегистрироваться у наших партнеров - онлайн-стратегия MyLands. При регистрации в игре Вы получите код, который сможете активировать после регистрации на pirat.ca и получить 1000 дублонов.

Ваш код:
7f43da59ca3d47849b44746c5ec74f3a54858321
 
     

Гуппи пузырики / Bubble Guppies / Сезон: 1-4 / Серии: 1-77 (Джонни Белт / Johnny Belt, Роберт Сколл / Robert Scull) [2011 г., Детский, обучающий, SATRip] Dub

Ответить на тему
 
Автор
Сообщение

Пост 19-Апр-2017 11:40

[Q] 

AlexDjas

Штурман

-Гуппи пузырики / Bubble Guppies-- Производство: США
Режиссер: Джонни Белт / Johnny Belt, Роберт Сколл / Robert Scull
Жанр: Детский, обучающий
Год выпуска: 2011-2014
Продолжительность: ~23 мин х 78 серий
Перевод: Профессиональный (полное дублирование)
Описание: Ныряйте в подводный мир обучения и развлечения вместе с веселыми Гуппи!
В удивительном подводном классе, под чутким руководством доброго учителя, маленькие русалочки, а вместе с ними и телезрители, узнают много нового и интересного о науках, здоровье, музыке, окружающем мире и правилах поведения. Каждый урок посвящен новой теме, которую ученики обсуждают с преподавателем.
Этот интерактивный мультсериал обучит детей самому широкому кругу тем. Он адресован дошкольникам, поэтому материал подается в увлекательной и доступной форме. Герои несколько раз повторяют пройденное и поют веселые песенки, которые посвящены главным темам урока и способствуют усвоению материала.-Качество видео: SATRip
Контейнер: AVI
Видео кодек: XviD
Аудио кодек: AC3
Видео: Xvid, 704x528 (4:3), 25fps, 1500 Kbps (1 сезон)
Xvid, 720х400 (16:9), 25fps, 1500 Kbps (2, 3 и 4 сезон)
Аудио: Русский, AC3 Dolby Digital, 2 ch, 192 kbps, 48 kHz
Cубтитры: отсутствуют
1 Сезон
Общее
Полное имя : \1 сезон\02. Мелковая гонка.avi
Формат : AVI
Формат/Информация : Audio Video Interleave
Размер файла : 279 Мбайт
Продолжительность : 22 м. 56 с.
Общий поток : 1701 Кбит/сек
Название фильма : 02. The Crayon Prix!
Режиссёр : SATRip
Программа кодирования : VirtualDubMod 1.5.10.3 | www.virtualdub-fr.org || (build 2550/release)
Формат оригинала/Имя : Cartoon
Видео
Идентификатор : 0
Формат : MPEG-4 Visual
Профиль формата : Advanced [email protected]
Параметр BVOP формата : 2
Параметр QPel формата : Нет
Параметр GMC формата : Без точки перехода
Параметр матрицы формата : Default (H.263)
Идентификатор кодека : XVID
Идентификатор кодека/Подсказка : XviD
Продолжительность : 22 м. 56 с.
Битрейт : 1500 Кбит/сек
Ширина : 704 пикселя
Высота : 528 пикселей
Соотношение сторон : 4:3
Частота кадров : 25,000 кадров/сек
Цветовое пространство : YUV
Субдискретизация насыщенности : 4:2:0
Битовая глубина : 8 бит
Тип развёртки : Прогрессивная
Метод сжатия : С потерями
Бит/(Пиксели*Кадры) : 0.161
Размер потока : 246 Мбайт (88%)
Библиотека кодирования : XviD 1.2.1 (UTC 2008-12-04)
Аудио
Идентификатор : 1
Формат : AC-3
Формат/Информация : Audio Coding 3
Параметр Endianness формата : Big
Идентификатор кодека : 2000
Продолжительность : 22 м. 56 с.
Вид битрейта : Постоянный
Битрейт : 192 Кбит/сек
Каналы : 2 канала
Расположение каналов : Front: L R
Частота : 48,0 КГц
Частота кадров : 31,250 кадров/сек (1536 spf)
Битовая глубина : 16 бит
Метод сжатия : С потерями
Размер потока : 31,5 Мбайт (11%)
Выравнивание : Разделение по промежуткам
Продолжительность промежутка : 40 мс. (1,00 видеокадр)
Время предзагрузки промежутка : 500 мс.
ServiceKind/String : Complete Main
2-4 Сезон
Общее
Полное имя :\2 сезон\05. Парад ковбойш.avi
Формат : AVI
Формат/Информация : Audio Video Interleave
Размер файла : 280 Мбайт
Продолжительность : 22 м. 57 с.
Общий поток : 1702 Кбит/сек
Название фильма : 05. The Cowgirl Parade!
Режиссёр : SATRip
Программа кодирования : VirtualDubMod 1.5.10.3 | www.virtualdub-fr.org || (build 2550/release)
Формат оригинала/Имя : Cartoon
Видео
Идентификатор : 0
Формат : MPEG-4 Visual
Профиль формата : Advanced [email protected]
Параметр BVOP формата : 2
Параметр QPel формата : Нет
Параметр GMC формата : Без точки перехода
Параметр матрицы формата : Default (H.263)
Идентификатор кодека : XVID
Идентификатор кодека/Подсказка : XviD
Продолжительность : 22 м. 57 с.
Битрейт : 1500 Кбит/сек
Ширина : 720 пикселей
Высота : 400 пикселей
Соотношение сторон : 16:9
Частота кадров : 25,000 кадров/сек
Цветовое пространство : YUV
Субдискретизация насыщенности : 4:2:0
Битовая глубина : 8 бит
Тип развёртки : Прогрессивная
Метод сжатия : С потерями
Бит/(Пиксели*Кадры) : 0.208
Размер потока : 246 Мбайт (88%)
Библиотека кодирования : XviD 1.2.1 (UTC 2008-12-04)
Аудио
Идентификатор : 1
Формат : AC-3
Формат/Информация : Audio Coding 3
Параметр Endianness формата : Big
Идентификатор кодека : 2000
Продолжительность : 22 м. 57 с.
Вид битрейта : Постоянный
Битрейт : 192 Кбит/сек
Каналы : 2 канала
Расположение каналов : Front: L R
Частота : 48,0 КГц
Частота кадров : 31,250 кадров/сек (1536 spf)
Битовая глубина : 16 бит
Метод сжатия : С потерями
Размер потока : 31,5 Мбайт (11%)
Выравнивание : Разделение по промежуткам
Продолжительность промежутка : 40 мс. (1,00 видеокадр)
Время предзагрузки промежутка : 500 мс.
ServiceKind/String : Complete Main
1 сезон
01. Вызывайте море-помощь / Call a Clambulance!
02. Мелковая Гонка! / The Crayon Prix!
03. Щенок Пузырек! / Bubble Puppy!
04. Построй Мне Здание! / Build Me a Building!
05. Утки, Стройся! / Ducks in a Row!
06. Особое Для Сердитого! / The Grumpfish Special!
07. Лунный Камень / The Moon Rocks!
08. Кто Сыграет Серого Волка? / Who's Gonna Play the Big Bad Wolf?
09. Зажги Меня Рок! / We Totally Rock!
10. Рыбкобол! / Fishketball!
11. Легенда о Розовоноге / The Legend of Pinkfoot
12. Вверх, вверх, под облака! / Gup Gup and Away
13. День Весенней Курочки! / The Spring Chicken is Coming!
14. Новая знакомая! / Boy Meets Squirrel
15. Коровушка! / Have A Cow!
16. Вечеринка В Честь Дня Креветки! / Super Shrimptennial Celebration
17. День Моллюска! / Happy Clam Day!
18. А Ну-Ка Раскопай / Can You Dig It
19. Буль-Буль Хрумы / Bubble Bites!
20. Вечеринка В Доме С Приведениями! / Haunted House Party!
2 сезон
01. Отмечено крестиком / X Marks the Spot
02. С наступающим, мистер Ворчун / Happy Holidays, Mr. Grumpfish!
03. Одинокий носорог / The Lonely Rhino
04. Волшебная сказка о щенке пузырьке! (начало) / Bubble Puppy's Fin-tastic Fairy Tale (ch.1)
04. Волшебная сказка о щенке пузырьке! (окончание) / Bubble Puppy's Fin-tastic Fairy Tale (ch.2)
05. Парад ковбойш / The Cowgirl Parade!
06. Пожарник Гил спешит на помощь / Firefighter Gil to the Rescue!
07. Прощай молочный зуб
08. Робот грузовик
09. В библиотеке!
10. На бич болл
11. Удивительный цирк Скампини
12. Стройка расстройка
13. Буль-буль кадабра!
14. Сэр Нонни Славный
15. Буль-буль утята
16. Где нос Сфинкса!
17. Трёхколейная гонка!
18. Жучки и паучки!
19. Кудри и хвосты
3 сезон
01. Готовься к школе / Get Ready for School!
02. Полицейский коп-курс / The Police Cop-etition!
03. Слоновий хобо-данк / The Elephant Trunk-a-Dunk
04. Супер кубок по балету / The Super Ballet Bowl!
05. Волшебник страны Оз-тралии / The Wizard of Oz-tralia!
06. Это всё Арктика / The Arctic Life!
07. Щенячья любовь / Puppy Love
08. Волшебное кольцо Пузырляндии (начало) / The Puppy and the Ring? (ch.1)
08. Волшебное кольцо Пузырляндии (окончание) / The Puppy and the Ring? (ch.2)
09. Парковка развлечений / The Amusement Parking Lot!
10. Доброе утро, мистер Ворчун / Good Morning, Mr. Grumpfish!
11. Устричный заяц / The Oyster Bunny
12. Неопознанный летающий оркестр / The Unidentified Flying Orchestra!
13. Используй чувства / Come to Your Senses!
14. Пчелинные соревнования / The Bubble Bee-athalon!
15. Праздник на корабле / Party at Sea!
16. Правила гигиены / Bubble Scrubbies!
17. Бульнечный день / Swimtastic Check-Up
18. Осенний урожай / Gobble Gobble Guppies
19. Счастливого Рождества, Гуппи! / A Very Guppy Christmas!
20. Лужебол / Puddleball!
21. Забег лягушек / The Running of the Bullfrogs!
22. Рыбный котёнок / Bubble Kitty
23. Супер гуппи! / Super Guppies!
24. Дельфин — лучший друг гуппи! / A Dolphin Is a Guppy's Best Friend!
25. Фруктовый лагерь! / Fruit Camp!
4 сезон
01. Блестящий игромир! / The Glitter Games!
02. Сундук нарядов! / Costume Boxing!
03. Новая конура! / The New Doghouse!
04. У гуппи переезд / Guppy Movers!
05. Кексобол / Batterball!
06. Храм Потерянных Щенков! / Temple of the Lost Puppy!
07. Космические гуппи / Space Guppies!
08. Новогодний Дракон / The New Year's Dragon!
09. Пастушья собака / Sheep Doggy!
10. Эти чудесные малыши / Bubble Baby!
13. Здравствуй, лето! / The Summer Camp Games
14. Весёлый Хэллоуин / Trick-or-Treat Mr. Grumpfish
Download / Скачать

Хотите скачать бесплатно? Зарегистрируйтесь на сайте (ссылка на регистрацию). Pirat.ca - самый быстрый торрент трекер в рунете!

Как скачивать  ·   Что такое торрент  ·   Рейтинг и ограничения



Последний раз редактировалось: AlexDjas (2017-04-21 12:30), всего редактировалось 2 раз(а)

Андря

8473

Пост 20-Апр-2017 10:10 (спустя 22 часа)

[Q] 

сделайте скриншоты с раздаваемого материала. Данные скриншоты не соответствуют заявленным данным.
Правила оформления раздач в разделе Кино, Видео и ТВ, на палубе Авторского перевода. почитайте )))

_________________
Като Тешекика
[Профиль]  [ЛС] 
Показать сообщения:    
Ответить на тему

Текущее время: Сегодня 04:05

Часовой пояс: GMT + 4



Вы не можете начинать темы
Вы не можете отвечать на сообщения
Вы не можете редактировать свои сообщения
Вы не можете удалять свои сообщения
Вы не можете голосовать в опросах
Вы не можете прикреплять файлы к сообщениям
Вы не можете скачивать файлы

▼ Вниз