ML
     
  Уважаемый Гость!
Вы можете поддержать проект и зарегистрироваться у наших партнеров - онлайн-стратегия MyLands. При регистрации в игре Вы получите код, который сможете активировать после регистрации на pirat.ca и получить 1000 дублонов.

Ваш код:
80b5b27a57ca3bf44225a17379fdfbeec310c513
 
     

(Hard Rock) Bonfire - Byte the Bullet - 2017 [FLAC, image+.cue, lossless]

Ответить на тему
 
Автор
Сообщение

Пост 21-Апр-2017 17:23

[Q] 

Дядя Вова

Гроза морей

-Bonfire - Byte the Bullet-- Год издания: 2017
Страна: Ingolstadt, Bavaria, Germany
Жанр: Hard Rock
Продолжительность: 01:03:32-Лейбл издания: UDR Records
Тип альбома: Master
Страна-выпуска диска: Mar 14th, 2017 Germany
Номер по каталогу: [UDR085P01]
Формат: FLAC
Битрейт аудио: lossless
Тип рипа: image+.cue
Наличие сканов в содержимом раздачи: да-
01. Power Train
02. Stand up 4 Rock
03. Praying 4 A Miracle
04. Some Kinda Evil
05. Lonely Nights
06. Byte The Bullet
07. Locomotive Breath (Jethro Tull Cover)
08. Reach For The Sky
09. Sweet Surrender
10. Friedensreich
11. InstruMetal
12. Too Far from Heaven
13. Without You
14. Sweet Obsession (Bonus Track
Exact Audio Copy V1.3 from 2. September 2016
EAC extraction logfile from 20. April 2017, 18:37
Bonfire / Byte the Bullet
Used drive : ATAPI iHAS122 W Adapter: 2 ID: 0
Read mode : Secure
Utilize accurate stream : Yes
Defeat audio cache : Yes
Make use of C2 pointers : No
Read offset correction : 48
Overread into Lead-In and Lead-Out : No
Fill up missing offset samples with silence : Yes
Delete leading and trailing silent blocks : No
Null samples used in CRC calculations : Yes
Used interface : Installed external ASPI interface
Used output format : User Defined Encoder
Selected bitrate : 1024 kBit/s
Quality : High
Add ID3 tag : No
Command line compressor : C:\Program Files\FLAC\flac.exe
Additional command line options : -V -8 -T "Date=%year%" -T "Genre=%genre%" -T"COMMENT=Ripped by Ilijan - ilko" -8 -V %source%
TOC of the extracted CD
Track | Start | Length | Start sector | End sector
---------------------------------------------------------
1 | 0:00.00 | 7:02.18 | 0 | 31667
2 | 7:02.18 | 4:34.70 | 31668 | 52287
3 | 11:37.13 | 4:32.34 | 52288 | 72721
4 | 16:09.47 | 4:14.74 | 72722 | 91845
5 | 20:24.46 | 4:48.51 | 91846 | 113496
6 | 25:13.22 | 4:34.34 | 113497 | 134080
7 | 29:47.56 | 6:24.48 | 134081 | 162928
8 | 36:12.29 | 5:27.54 | 162929 | 187507
9 | 41:40.08 | 4:37.33 | 187508 | 208315
10 | 46:17.41 | 0:51.53 | 208316 | 212193
11 | 47:09.19 | 3:38.73 | 212194 | 228616
12 | 50:48.17 | 5:03.17 | 228617 | 251358
13 | 55:51.34 | 4:28.69 | 251359 | 271527
14 | 60:20.28 | 3:12.21 | 271528 | 285948
Range status and errors
Selected range
Filename D:\ilko\Bonfire - Byte the Bullet.wav
Peak level 100.0 %
Extraction speed 3.9 X
Range quality 99.9 %
Test CRC 2F6700B6
Copy CRC 2F6700B6
Copy OK
No errors occurred
AccurateRip summary
Track 1 not present in database
Track 2 not present in database
Track 3 not present in database
Track 4 not present in database
Track 5 not present in database
Track 6 not present in database
Track 7 not present in database
Track 8 not present in database
Track 9 not present in database
Track 10 not present in database
Track 11 not present in database
Track 12 not present in database
Track 13 not present in database
Track 14 not present in database
None of the tracks are present in the AccurateRip database
End of status report
---- CUETools DB Plugin V2.1.6
[CTDB TOCID: QIYCnGZN9i6baw01XyP17AZ1iWI-] found
Submit result: QIYCnGZN9i6baw01XyP17AZ1iWI- has been confirmed
Track | CTDB Status
1 | ( 9/10) Accurately ripped
2 | ( 9/10) Accurately ripped
3 | ( 9/10) Accurately ripped
4 | ( 9/10) Accurately ripped
5 | ( 9/10) Accurately ripped
6 | ( 9/10) Accurately ripped
7 | ( 9/10) Accurately ripped
8 | ( 9/10) Accurately ripped
9 | ( 9/10) Accurately ripped
10 | ( 9/10) Accurately ripped
11 | ( 9/10) Accurately ripped
12 | ( 9/10) Accurately ripped
13 | ( 9/10) Accurately ripped
14 | ( 9/10) Accurately ripped
==== Log checksum ECE8E8470C38CCA27EBA135529E1C155E0A94F7D08DEC969479C0D1A059F4734 ====
REM GENRE "Hard Rock"
REM DATE 2017
REM DISCID C60EE40E
REM COMMENT "ExactAudioCopy v1.3"
PERFORMER "Bonfire"
TITLE "Byte the Bullet"
FILE "Bonfire - Byte the Bullet.flac" WAVE
TRACK 01 AUDIO
TITLE "Power Train"
PERFORMER "Bonfire"
INDEX 01 00:00:00
TRACK 02 AUDIO
TITLE "Stand up 4 Rock"
PERFORMER "Bonfire"
INDEX 01 07:02:18
TRACK 03 AUDIO
TITLE "Praying 4 A Miracle"
PERFORMER "Bonfire"
INDEX 01 11:37:13
TRACK 04 AUDIO
TITLE "Some Kinda Evil"
PERFORMER "Bonfire"
INDEX 01 16:09:47
TRACK 05 AUDIO
TITLE "Lonely Nights"
PERFORMER "Bonfire"
INDEX 01 20:24:46
TRACK 06 AUDIO
TITLE "Byte The Bullet"
PERFORMER "Bonfire"
INDEX 01 25:13:22
TRACK 07 AUDIO
TITLE "Locomotive Breath"
PERFORMER "Bonfire"
INDEX 01 29:47:56
TRACK 08 AUDIO
TITLE "Reach For The Sky"
PERFORMER "Bonfire"
INDEX 01 36:12:29
TRACK 09 AUDIO
TITLE "Sweet Surrender"
PERFORMER "Bonfire"
INDEX 01 41:40:08
TRACK 10 AUDIO
TITLE "Friedensreich"
PERFORMER "Bonfire"
INDEX 01 46:17:41
TRACK 11 AUDIO
TITLE "InstruMetal"
PERFORMER "Bonfire"
INDEX 01 47:09:19
TRACK 12 AUDIO
TITLE "Too Far from Heaven"
PERFORMER "Bonfire"
INDEX 01 50:48:17
TRACK 13 AUDIO
TITLE "Without You"
PERFORMER "Bonfire"
INDEX 01 55:51:34
TRACK 14 AUDIO
TITLE "Sweet Obsession (Bonus Track)"
PERFORMER "Bonfire"
INDEX 01 60:20:28
Download / Скачать

Хотите скачать бесплатно? Зарегистрируйтесь на сайте (ссылка на регистрацию). Pirat.ca - самый быстрый торрент трекер в рунете!

Как скачивать  ·   Что такое торрент  ·   Рейтинг и ограничения

Показать сообщения:    
Ответить на тему

Текущее время: Сегодня 15:07

Часовой пояс: GMT + 4



Вы не можете начинать темы
Вы не можете отвечать на сообщения
Вы не можете редактировать свои сообщения
Вы не можете удалять свои сообщения
Вы не можете голосовать в опросах
Вы не можете прикреплять файлы к сообщениям
Вы не можете скачивать файлы

▼ Вниз