Уважаемый Гость!
Вы можете поддержать проект и зарегистрироваться у наших партнеров - онлайн-стратегия MyLands. При регистрации в игре Вы получите код, который сможете активировать после регистрации на pirat.ca и получить 1000 дублонов.

Ваш код:
d23e35cc32311333deb9b06dcb56734ec3e547bf
 
     

Дом 2: Проклятая обитель / House II: The Second Story (Этан Уайли / Ethan Wiley) [1987 г., Ужасы, мистика, комедия, BDRip, 720p] AVO (Гаврилов, Визгунов, неизвестный) + DVO (Рен ТВ)

Ответить на тему
 
Автор
Сообщение

Пост 21-Апр-2017 22:28

[Q] 

leha1975

Гроза морей

Дом 2: Проклятая обитель / House II: The Second Story Год выпуска: 1987
Производство: США
Жанр: Ужасы, мистика, комедия
Продолжительность: 01:24:44
Перевод: Авторский (одноголосый, закадровый) Гаврилов, Визгунов, неизвестный
Перевод 2: Профессиональный (двухголосый, закадровый) Рен ТВ
Режиссер: Этан Уайли / Ethan Wiley
В ролях: Ари Гросс, Джонатан Старк, Ройал Дэно, Билл Мехер, Джон Ратценбергер, Лар Парк-Линкольн, Эми Ясбек, Грегори Уэлкотт, Дуайр Браун, Ленора Мэй...
Описание: Парень по имени Джесси заимел в качестве наследства старый особнячок, время расцвета коего давно уже миновало, но жить в нём всё ещё можно. И постепенно водоворот сколь диких, столь и весёлых событий происходящих в самом доме и вокруг него, захлёстывает парня а заодно и его закадычного дружка Чарли. Представляете, раскапываете вы могилу своего прапрадедушки, а он оказывается жив, курилка! И жив он благодаря хрустальному черепу, на который, как окажется, всякая нечисть так и мечтает наложить лапу...

Качество видео: BDRip
Контейнер: MKV
Стандарт разрешения: 720p
Видео кодек: H.264
Аудио кодек: AC3
Видео: 4 751 kb/s, 1280*688 pixels, 1.860, 24.000
Аудио : AC3, 48.0 kHz, 192 kb/s, 2 channels - Гаврилов
Аудио #2: AC3, 48.0 kHz, 192 kb/s, 2 channels - Визгунов
Аудио #3: AC3, 48.0 kHz, 192 kb/s, 2 channels - неизвестный
Аудио #4: AC3, 48.0 kHz, 192 kb/s, 2 channels - Рен ТВ
E:\PIRAT.CA\РАЗДАЧИ\Дом 2 Проклятая обитель. 1987 BDRip 720p.mkv
General
Unique ID : 229500030729964309045998109263640295383 (0xACA8191FD6968D61B840B30EDA0277D7)
Complete name : E:\PIRAT.CA\РАЗДАЧИ\Дом 2 Проклятая обитель. 1987 BDRip 720p.mkv
Format : Matroska
Format version : Version 2
File size : 3.38 GiB
Duration : 1h 27mn
Overall bit rate : 5 520 Kbps
Encoded date : UTC 2017-04-22 13:33:17
Writing application : mkvmerge v7.8.0 ('River Man') 32bit built on Apr 3 2015 12:11:22
Writing library : libebml v1.3.1 + libmatroska v1.4.2
Video #1
ID : 1
Format : AVC
Format/Info : Advanced Video Codec
Format profile : [email protected]
Format settings, CABAC : Yes
Format settings, ReFrames : 9 frames
Codec ID : V_MPEG4/ISO/AVC
Duration : 1h 27mn
Bit rate : 4 751 Kbps
Width : 1 280 pixels
Height : 688 pixels
Display aspect ratio : 1.860
Frame rate : 24.000 fps
Color space : YUV
Chroma subsampling : 4:2:0
Bit depth : 8 bits
Scan type : Progressive
Bits/(Pixel*Frame) : 0.225
Stream size : 2.85 GiB (84%)
Writing library : x264 core 146 r2538 121396c
Encoding settings : cabac=1 / ref=9 / deblock=1:-1:-1 / analyse=0x3:0x133 / me=umh / subme=10 / psy=1 / psy_rd=1.00:0.00 / mixed_ref=1 / me_range=32 / chroma_me=1 / trellis=2 / 8x8dct=1 / cqm=0 / deadzone=21,11 / fast_pskip=0 / chroma_qp_offset=-2 / threads=12 / lookahead_threads=2 / sliced_threads=0 / nr=0 / decimate=0 / interlaced=0 / bluray_compat=0 / constrained_intra=0 / bframes=8 / b_pyramid=2 / b_adapt=2 / b_bias=0 / direct=3 / weightb=1 / open_gop=0 / weightp=2 / keyint=250 / keyint_min=24 / scenecut=40 / intra_refresh=0 / rc=2pass / mbtree=0 / bitrate=4751 / ratetol=1.0 / qcomp=0.60 / qpmin=0 / qpmax=69 / qpstep=4 / cplxblur=20.0 / qblur=0.5 / ip_ratio=1.40 / pb_ratio=1.30 / aq=1:1.00
Audio #2
ID : 2
Format : AC-3
Format/Info : Audio Coding 3
Mode extension : CM (complete main)
Codec ID : A_AC3
Duration : 1h 27mn
Bit rate mode : Constant
Bit rate : 192 Kbps
Channel(s) : 2 channels
Channel positions : Front: L R
Sampling rate : 48.0 KHz
Bit depth : 16 bits
Compression mode : Lossy
Stream size : 121 MiB (3%)
Title : ГАВРИЛОВ
Language : Russian
Audio #3
ID : 3
Format : AC-3
Format/Info : Audio Coding 3
Mode extension : CM (complete main)
Codec ID : A_AC3
Duration : 1h 27mn
Bit rate mode : Constant
Bit rate : 192 Kbps
Channel(s) : 2 channels
Channel positions : Front: L R
Sampling rate : 48.0 KHz
Bit depth : 16 bits
Compression mode : Lossy
Stream size : 121 MiB (3%)
Title : ВИЗГУНОВ
Language : Russian
Audio #4
ID : 4
Format : AC-3
Format/Info : Audio Coding 3
Mode extension : CM (complete main)
Codec ID : A_AC3
Duration : 1h 27mn
Bit rate mode : Constant
Bit rate : 192 Kbps
Channel(s) : 2 channels
Channel positions : Front: L R
Sampling rate : 48.0 KHz
Bit depth : 16 bits
Compression mode : Lossy
Stream size : 121 MiB (3%)
Title : НЕИЗВЕСТНЫЙ
Language : Russian
Audio #5
ID : 5
Format : AC-3
Format/Info : Audio Coding 3
Mode extension : CM (complete main)
Codec ID : A_AC3
Duration : 1h 27mn
Bit rate mode : Constant
Bit rate : 192 Kbps
Channel(s) : 2 channels
Channel positions : Front: L R
Sampling rate : 48.0 KHz
Bit depth : 16 bits
Compression mode : Lossy
Stream size : 121 MiB (3%)
Title : РЕН ТВ
Language : Russian
avs4x26x.exe: -L x264_64.exe --pass 2 --bitrate 4751 --preset veryslow --profile high --level 4.1 --deblock -1:-1 --merange 32 --no-fast-pskip --no-dct-decimate --no-mbtree --psnr --ssim --sar 1:1 --stats "C:\Temp\0414.log" --output "C:\Temp\0414.264" "C:\Temp\0414.avs"
raw [info]: 1280x688p 1:1 @ 24/1 fps (cfr)
x264 [warning]: --psnr used with psy on: results will be invalid!
x264 [warning]: --tune psnr should be used if attempting to benchmark psnr!
x264 [info]: using SAR=1/1
x264 [info]: using cpu capabilities: MMX2 SSE2Fast SSSE3 SSE4.2 AVX
x264 [info]: profile High, level 4.1
x264 [info]: frame I:969 Avg QP:17.37 size: 97074 PSNR Mean Y:46.47 U:48.76 V:50.96 Avg:47.28 Global:46.92
x264 [info]: frame P:24154 Avg QP:20.14 size: 44381 PSNR Mean Y:44.33 U:47.90 V:49.71 Avg:45.33 Global:44.86
x264 [info]: frame B:101270 Avg QP:21.58 size: 19359 PSNR Mean Y:43.22 U:47.42 V:49.28 Avg:44.30 Global:43.77
x264 [info]: consecutive B-frames: 1.5% 1.6% 4.7% 13.1% 12.5% 46.4% 7.2% 5.1% 8.0%
x264 [info]: mb I I16..4: 2.8% 88.4% 8.8%
x264 [info]: mb P I16..4: 1.1% 14.4% 1.0% P16..4: 40.6% 26.1% 13.9% 0.2% 0.0% skip: 2.8%
x264 [info]: mb B I16..4: 0.1% 1.0% 0.1% B16..8: 46.1% 15.4% 3.8% direct: 9.4% skip:24.2% L0:46.6% L1:46.4% BI: 7.0%
x264 [info]: 8x8 transform intra:86.7% inter:66.5%
x264 [info]: direct mvs spatial:99.5% temporal:0.5%
x264 [info]: coded y,uvDC,uvAC intra: 88.3% 81.6% 48.3% inter: 44.6% 36.5% 6.8%
x264 [info]: i16 v,h,dc,p: 67% 12% 7% 14%
x264 [info]: i8 v,h,dc,ddl,ddr,vr,hd,vl,hu: 9% 6% 7% 10% 16% 15% 14% 12% 12%
x264 [info]: i4 v,h,dc,ddl,ddr,vr,hd,vl,hu: 9% 5% 4% 9% 17% 17% 15% 13% 12%
x264 [info]: i8c dc,h,v,p: 44% 19% 20% 17%
x264 [info]: Weighted P-Frames: Y:11.1% UV:6.0%
x264 [info]: ref P L0: 39.6% 11.2% 20.1% 7.9% 6.8% 4.6% 4.4% 2.4% 2.6% 0.4% 0.0%
x264 [info]: ref B L0: 65.6% 14.9% 7.7% 4.2% 3.1% 2.6% 1.4% 0.5%
x264 [info]: ref B L1: 90.4% 9.6%
x264 [info]: SSIM Mean Y:0.9677108 (14.909db)
x264 [info]: PSNR Mean Y:43.457 U:47.524 V:49.371 Avg:44.516 Global:43.976 kb/s:4749.33
x264 [total]: encoded 126393 frames, 8.37 fps, 4749.33 kb/s
Download / Скачать

Хотите скачать бесплатно? Зарегистрируйтесь на сайте (ссылка на регистрацию). Pirat.ca - самый быстрый торрент трекер в рунете!

Как скачивать  ·   Что такое торрент  ·   Рейтинг и ограничения

ToRiR

Корсар

Пост 22-Апр-2017 01:12 (спустя 2 часа 44 минуты)

[Q] 

Уматный фильм,лучше 1-й части..
[Профиль]  [ЛС] 
Показать сообщения:    
Ответить на тему

Текущее время: Сегодня 08:20

Часовой пояс: GMT + 4



Вы не можете начинать темы
Вы не можете отвечать на сообщения
Вы не можете редактировать свои сообщения
Вы не можете удалять свои сообщения
Вы не можете голосовать в опросах
Вы не можете прикреплять файлы к сообщениям
Вы не можете скачивать файлы

▼ Вниз