Ценный груз / Precious Cargo (Макс Адамс / Max Adams) [2016 г., боевик, триллер, драма, комедия, криминал, HDRip] Dub [iTunes]

Ответить на тему
 
Автор
Сообщение

Пост 08-Май-2017 18:42

[Q] 

ara1205

-Ценный груз / Precious Cargo-- Производство: Канада
Год выпуска: 2016 г.
Жанр: боевик, триллер, драма, комедия, криминал
Продолжительность: 01:29:56
Перевод: Профессиональный (полное дублирование) [iTunes]
Режиссер: Макс Адамс / Max Adams-В ролях: Брюс Уиллис, Марк-Пол Госселаар, Клер Форлани, Джон Бразертон, Дженна Б. Келли, Николас М. Лоб, Лидия Халл, Дэниэл Бернхард, Эшли Кирк, Тайлер Джон Олсон-Описание: Профессиональная воровка Карен (Форлани) всегда ответственно подходит к каждому новому делу, но все на свете невозможно предугадать, и в этот раз ее план не сработал. А все потому, что она решила кинуть своего покровителя, жестокого криминального босса Эдди (Уиллис). За непослушание и обман, он требует всю долю, иначе верная смерть. Теперь ей придется выполнить задание для Эдди, чтобы расплатится за содеянное. Для этого она обращается к своему бывшему бойфренду, который должен помочь совершить ограбление грузовика перевозящего драгоценности. Это очень опасная миссия, в таком деле не должно быть не единой осечки, но всю ли правду рассказала Карен своей новой команде? Знают ли они в какую игру они ввязываются?- -Качество видео: HDRip
Контейнер: AVI
Видео кодек: XviD
Аудио кодек: AC3
Видео: 720x304, 23,976 fps, 1783 kbps avg, 0.34 bit/pixel
Аудио: 48 kHz, AC3 Dolby Digital, 3/2 (L,C,R,l,r) + LFE ch, ~384 kbps
Cубтитры: отсутствуют-
Общее
Полное имя : C:\Users\Admin\Pictures\Ценный груз\Cenniy.Gruz.2O16.D.HDRip.[pirat.ca].avi
Формат : AVI
Формат/Информация : Audio Video Interleave
Размер файла : 1,37 Гбайт
Продолжительность : 1 ч. 29 м.
Общий поток : 2176 Кбит/сек
Программа кодирования : VirtualDubMod 1.5.10.2 (build 2540/release)
Библиотека кодирования : VirtualDubMod build 2540/release
Видео
Идентификатор : 0
Формат : MPEG-4 Visual
Профиль формата : Advanced [email protected]
Параметр BVOP формата : 2
Параметр QPel формата : Нет
Параметр GMC формата : Без точки перехода
Параметр матрицы формата : Default (MPEG)
Идентификатор кодека : XVID
Идентификатор кодека/Подсказка : XviD
Продолжительность : 1 ч. 29 м.
Битрейт : 1783 Кбит/сек
Ширина : 720 пикселей
Высота : 304 пикселя
Соотношение сторон : 2,35:1
Частота кадров : 23,976 кадра/сек
Цветовое пространство : YUV
Субдискретизация насыщенности : 4:2:0
Битовая глубина : 8 бит
Тип развёртки : Прогрессивная
Метод сжатия : С потерями
Бит/(Пиксели*Кадры) : 0.340
Размер потока : 1,12 Гбайт (82%)
Библиотека кодирования : XviD 1.2.1 (UTC 2008-12-04)
Аудио
Идентификатор : 1
Формат : AC-3
Формат/Информация : Audio Coding 3
Расширение режима : CM (complete main)
Параметр Endianness формата : Big
Идентификатор кодека : 2000
Продолжительность : 1 ч. 29 м.
Вид битрейта : Постоянный
Битрейт : 384 Кбит/сек
Каналы : 6 каналов
Расположение каналов : Front: L C R, Side: L R, LFE
Частота : 48,0 КГц
Битовая глубина : 16 бит
Метод сжатия : С потерями
Размер потока : 247 Мбайт (18%)
Выравнивание : Разделение по промежуткам
Продолжительность промежутка : 42 мс. (1,00 видеокадр)
Время предзагрузки промежутка : 500 мс.
-
-
Download / Скачать

Хотите скачать бесплатно? Зарегистрируйтесь на сайте (ссылка на регистрацию). Pirat.ca - самый быстрый торрент трекер в рунете!

Как скачивать  ·   Что такое торрент  ·   Рейтинг и ограничения

fishman

Флибустьер

Пост 08-Май-2017 20:58 (спустя 2 часа 15 минут)

[Q] 

Спасибо!!! rum

_________________
|___|___|___|___|___|___|___|__|__
__|__|__|_Биться головой_|___|___|
|___|___|___|__сюда!!___|___|__|__
__|___|___|___|___|___|___|__|__
[Профиль]  [ЛС] 

medved218

Корсар

Пост 09-Май-2017 09:54 (спустя 12 часов)

[Q] 

фильм 2 сорта, хотят там и Брюс
[Профиль]  [ЛС] 

pvm

Флибустьер

Пост 11-Май-2017 04:03 (спустя 1 день 18 часов)

[Q] 

фильм 2 сорта, хотят там и Брюс
А какой из последних фильмов с Брюсом был не 2 сорт?
[Профиль]  [ЛС] 

Sharifulla

Корсар

Пост 18-Май-2017 11:08 (спустя 7 дней)

[Q] 

Спасибо автор за труды, хороший фильм Спасибо!!! Спасибо!!!
[Профиль]  [ЛС] 

Spectroom

Штурман

Пост 29-Май-2017 00:27 (спустя 10 дней)

[Q] 

Спасибо, глянем на лысого))

_________________
[Профиль]  [ЛС] 

E-RTY

Флибустьер

30

Пост 30-Май-2017 21:55 (спустя 1 день 21 час)

[Q] 

Блин, не гоните на Лысого! Он - Легенда)
[Профиль]  [ЛС] 

ZhekasCat

Корсар

37

Пост 01-Июл-2017 22:41 (спустя 1 месяц 2 дня)

[Q] 

Что-то Брюс последнее время боссов стал играть.
[Профиль]  [ЛС] 

Кристина119

Гроза морей

Пост 01-Июл-2017 23:13 (спустя 32 минуты)

[Q] 

Фильм так себе...за труды спасибо Лови бочку
[Профиль]  [ЛС] 

Ambeg

Корсар

Пост 05-Июл-2017 23:07 (спустя 3 дня)

[Q] 

796711фильм 2 сорта, хотят там и Брюс
800979Фильм так себе...за труды спасибо Лови бочку
Вам что фильмы оскары каждый день подавать . Норм фильм Спасибо за труды
[Профиль]  [ЛС] 

vasdas

Корсар

Пост 19-Сен-2017 00:38 (спустя 2 месяца 13 дней)

[Q] 

хорошее кино, мне понравилось Спасибо!!!
[Профиль]  [ЛС] 

exelero07

Гроза морей

Пост 12-Мар-2018 12:46 (спустя 5 месяцев 23 дня)

[Q] 

Как боевичок, самый раз. Но Уиллису конечно нужно получше роли выбирать.
[Профиль]  [ЛС] 

koljan-2008

Флибустьер

5

Пост 10-Июн-2018 19:30 (спустя 2 месяца 29 дней)

[Q] 

Скачаю, погляжу на досуге. Спасибо!!!

_________________
Нужно лишь верить в мечту. Искренне верить! И тогда всё получится!
[Профиль]  [ЛС] 
Показать сообщения:    
Ответить на тему

Текущее время: Сегодня 16:23

Часовой пояс: GMT + 4



Вы не можете начинать темы
Вы не можете отвечать на сообщения
Вы не можете редактировать свои сообщения
Вы не можете удалять свои сообщения
Вы не можете голосовать в опросах
Вы не можете прикреплять файлы к сообщениям
Вы не можете скачивать файлы

Майнать ▼