Уважаемый Гость!
Вы можете поддержать проект и зарегистрироваться у наших партнеров - онлайн-стратегия MyLands. При регистрации в игре Вы получите код, который сможете активировать после регистрации на pirat.ca и получить 1000 дублонов.

Ваш код:
ec290ec549f2f2f89d4dac9cc791f2318d3b9b40
 
     

(Chanson) VA - Песни, ставшие легендой - 2010 [FLAC, image+.cue, lossless]

Ответить на тему
 
Автор
Сообщение

Пост 09-Май-2017 16:37

[Q] 

Борей_64

Корсар

-VA - Песни, ставшие легендой-- Год издания: 2010
Страна: Россия
Жанр: Chanson
Продолжительность: 01:12:50-Лейбл издания: MOON Records
Номер по каталогу: MR 4675-2
Формат: FLAC
Битрейт аудио: lossless
Тип рипа: image+.cue
Наличие сканов в содержимом раздачи: да-
01. М. Круг - Владимирский централ [04:28]
02. Е. Амирамов - Молодая [04:01]
03. Г. Жаров - Ушаночка [04:15]
04. М. Шелег и Вера Снежная - Карточный домик [04:16]
05. В. Залкин - Одинокая ветка сирени [03:59]
06. А. Дюмин - Пацаны [03:49]
07. Г. Кричевский - Ништяк, браток! [02:47]
08. Петлюра - Малолетка [03:45]
09. гр.Бутырка - Кольщик [03:53]
10. А. Шапиро - Не прощайтесь, друзья [04:29]
11. С. Север - Лагеря [05:28]
12. гр.Попутчик - Гоп! [03:10]
13. А. Вестов - Наломали дров [03:24]
14. Ю. Алмазов - Четыре ходочки [03:15]
15. гр.Беломорканал - Королева обочин и колхозных полей [02:20]
16. В. Бобков - Тики-так [04:49]
17. С. Наговицын - Разбитая судьба [06:04]
18. А. Звинцов - На закате ХХ века [04:31]
Код:
Exact Audio Copy V1.3 from 2. September 2016
Отчёт EAC об извлечении, выполненном 9. мая 2017, 10:33
Various / Песни, ставшие легендой
Дисковод: Optiarc DVD RW AD-7173A   Adapter: 1  ID: 0
Режим чтения                 : Достоверность
Использование точного потока : Да
Отключение кэша аудио        : Да
Использование указателей C2  : Нет
Коррекция смещения при чтении                     : 48
Способность читать области Lead-in и Lead-out     : Нет
Заполнение пропущенных сэмплов тишиной            : Да
Удаление блоков с тишиной в начале и конце        : Нет
При вычислениях CRC использовались нулевые сэмплы : Да
Интерфейс                                         : Встроенный Win32-интерфейс для Win NT/2000
Выходной формат          : Пользовательский кодировщик
Выбранный битрейт        : 128 kBit/s
Качество                 : Высокий
Добавление ID3-тега      : Нет
Утилита сжатия           : D:\Program Files\Exact_Audio Copy\Flac\flac.exe
Дополнительные параметры : -V -8 -T "Date=%year%" -T "Genre=%genre%" %source%
TOC извлечённого CD
     Трек |   Старт  | Длительность | Начальный сектор | Конечный сектор
    ---------------------------------------------------------------------
       1  |  0:00.00 |    4:28.10   |           0      |      20109
       2  |  4:28.10 |    4:01.13   |       20110      |      38197
       3  |  8:29.23 |    4:15.11   |       38198      |      57333
       4  | 12:44.34 |    4:16.58   |       57334      |      76591
       5  | 17:01.17 |    3:59.19   |       76592      |      94535
       6  | 21:00.36 |    3:49.33   |       94536      |     111743
       7  | 24:49.69 |    2:47.31   |      111744      |     124299
       8  | 27:37.25 |    3:45.28   |      124300      |     141202
       9  | 31:22.53 |    3:53.17   |      141203      |     158694
      10  | 35:15.70 |    4:29.01   |      158695      |     178870
      11  | 39:44.71 |    5:28.64   |      178871      |     203534
      12  | 45:13.60 |    3:10.23   |      203535      |     217807
      13  | 48:24.08 |    3:24.65   |      217808      |     233172
      14  | 51:48.73 |    3:15.20   |      233173      |     247817
      15  | 55:04.18 |    2:20.63   |      247818      |     258380
      16  | 57:25.06 |    4:49.33   |      258381      |     280088
      17  | 62:14.39 |    6:04.60   |      280089      |     307448
      18  | 68:19.24 |    4:31.45   |      307449      |     327818
Характеристики диапазона извлечения и сообщения об ошибках
Выбранный диапазон
     Имя файла C:\Users\Pavel\Desktop\0\VA - Legenda\Various - Песни, ставшие легендой.wav
     Пиковый уровень 97.7 %
     Скорость извлечения 8.3 X
     Качество диапазона 100.0 %
     CRC теста 4A0B2759
     CRC копии 4A0B2759
     Копирование... OK
Ошибок не произошло
Конец отчёта
==== Контрольная сумма отчёта F4F319310A569CD14FD12825A7645853A46C3B0DDF6323A264AA3468BD340AC6 ====
Код:
REM GENRE Chanson
REM DATE 2010
REM DISCID E9111212
REM COMMENT "ExactAudioCopy v1.3"
PERFORMER "Various"
TITLE "Песни, ставшие легендой"
REM COMPOSER ""
FILE "Various - Песни, ставшие легендой.flac" WAVE
  TRACK 01 AUDIO
    TITLE "Владимирский централ"
    PERFORMER "М. Круг"
    REM COMPOSER ""
    INDEX 01 00:00:00
  TRACK 02 AUDIO
    TITLE "Молодая"
    PERFORMER "Е. Амирамов"
    REM COMPOSER ""
    INDEX 01 04:28:10
  TRACK 03 AUDIO
    TITLE "Ушаночка"
    PERFORMER "Г. Жаров"
    REM COMPOSER ""
    INDEX 01 08:29:23
  TRACK 04 AUDIO
    TITLE "Карточный домик"
    PERFORMER "М. Шелег и Вера Снежная"
    REM COMPOSER ""
    INDEX 01 12:44:34
  TRACK 05 AUDIO
    TITLE "Одинокая ветка сирени"
    PERFORMER "В. Залкин"
    REM COMPOSER ""
    INDEX 01 17:01:17
  TRACK 06 AUDIO
    TITLE "Пацаны"
    PERFORMER "А. Дюмин"
    REM COMPOSER ""
    INDEX 01 21:00:36
  TRACK 07 AUDIO
    TITLE "Ништяк, браток!"
    PERFORMER "Г. Кричевский"
    REM COMPOSER ""
    INDEX 01 24:49:69
  TRACK 08 AUDIO
    TITLE "Малолетка"
    PERFORMER "Петлюра"
    REM COMPOSER ""
    INDEX 01 27:37:25
  TRACK 09 AUDIO
    TITLE "Кольщик"
    PERFORMER "гр.Бутырка"
    REM COMPOSER ""
    INDEX 01 31:22:53
  TRACK 10 AUDIO
    TITLE "Не прощайтесь, друзья"
    PERFORMER "А. Шапиро"
    REM COMPOSER ""
    INDEX 01 35:15:70
  TRACK 11 AUDIO
    TITLE "Лагеря"
    PERFORMER "С. Север"
    REM COMPOSER ""
    INDEX 01 39:44:71
  TRACK 12 AUDIO
    TITLE "Гоп!"
    PERFORMER "гр.Попутчик"
    REM COMPOSER ""
    INDEX 01 45:13:60
  TRACK 13 AUDIO
    TITLE "Наломали дров"
    PERFORMER "А. Вестов"
    REM COMPOSER ""
    INDEX 01 48:24:08
  TRACK 14 AUDIO
    TITLE "Четыре ходочки"
    PERFORMER "Ю. Алмазов"
    REM COMPOSER ""
    INDEX 01 51:48:73
  TRACK 15 AUDIO
    TITLE "Королева обочин и колхозных полей"
    PERFORMER "гр.Беломорканал"
    REM COMPOSER ""
    INDEX 01 55:04:18
  TRACK 16 AUDIO
    TITLE "Тики-так"
    PERFORMER "В. Бобков"
    REM COMPOSER ""
    INDEX 01 57:25:06
  TRACK 17 AUDIO
    TITLE "Разбитая судьба"
    PERFORMER "С. Наговицын"
    REM COMPOSER ""
    INDEX 01 62:14:39
  TRACK 18 AUDIO
    TITLE "На закате ХХ века"
    PERFORMER "А. Звинцов"
    REM COMPOSER ""
    INDEX 01 68:19:24
Download / Скачать

Хотите скачать бесплатно? Зарегистрируйтесь на сайте (ссылка на регистрацию). Pirat.ca - самый быстрый торрент трекер в рунете!

Как скачивать  ·   Что такое торрент  ·   Рейтинг и ограничения

Показать сообщения:    
Ответить на тему

Текущее время: Сегодня 23:13

Часовой пояс: GMT + 4



Вы не можете начинать темы
Вы не можете отвечать на сообщения
Вы не можете редактировать свои сообщения
Вы не можете удалять свои сообщения
Вы не можете голосовать в опросах
Вы не можете прикреплять файлы к сообщениям
Вы не можете скачивать файлы

▼ Вниз