Уважаемый Гость!
Вы можете поддержать проект и зарегистрироваться у наших партнеров - онлайн-стратегия MyLands. При регистрации в игре Вы получите код, который сможете активировать после регистрации на pirat.ca и получить 1000 дублонов.

Ваш код:
682fda369db314ffc3bf18d836fce8f4c6b7be8f
 
     

Прочь / Get Out (Джордан Пил / Jordan Peele) [2017 г., ужасы, детектив, WEB-DLRip] MVO + Original (Eng)

Ответить на тему
 
Автор
Сообщение

Пост 09-Май-2017 19:18

[Q] 

ara1205

-Прочь / Get Out-- Производство: США
Год выпуска: 2017 г.
Жанр: ужасы, детектив
Продолжительность: 01:44:05
Перевод: Многоголосый [AlexFilm]
Оригинальный аудиопоток: английский-Режиссер: Джордан Пил / Jordan Peele-В ролях: Дэниэл Калуя, Эллисон Уильямс, Кэтрин Кинер, Брэдли Уитфорд, Калеб Лэндри Джонс, Маркус Хендерсон, Бетти Гэбриел, Лейкит Стэнфилд, Стивен Рут, Лил Релл-Описание: Знакомство с родителями подружки не предвещает молодому фотографу из Нью-Йорка ничего хорошего, ведь семья девушки принадлежит к элитному обществу и живет в уединенном загородном доме. Если бы он только знал истинную причину своего приглашения, то немедленно бросился бы прочь…- -Качество видео: WEB-DLRip
Контейнер: AVI
Видео кодек: XviD
Аудио кодек: AC3
Видео: 720x304, 23,976 fps, 1616 kbps avg, 0.308 bit/pixel
Аудио #1: Rus, 48 kHz, AC3 Dolby Digital, 2 ch, ~192 kbps
Аудио #2: Eng, 48 kHz, AC3 Dolby Digital, 2 ch, ~192 kbps
Cубтитры: отсутствуют-
Общее
Полное имя : C:\Users\Admin\Pictures\Прочь\Get.Out.2017.WEB-DLRip.1.46Gb.[pirat.ca].avi
Формат : AVI
Формат/Информация : Audio Video Interleave
Размер файла : 1,46 Гбайт
Продолжительность : 1 ч. 44 м.
Общий поток : 2010 Кбит/сек
Видео
Идентификатор : 0
Формат : MPEG-4 Visual
Профиль формата : Advanced [email protected]
Параметр BVOP формата : 1
Параметр QPel формата : Нет
Параметр GMC формата : Без точки перехода
Параметр матрицы формата : Выборочная
Идентификатор кодека : XVID
Идентификатор кодека/Подсказка : XviD
Продолжительность : 1 ч. 44 м.
Битрейт : 1616 Кбит/сек
Ширина : 720 пикселей
Высота : 304 пикселя
Соотношение сторон : 2,35:1
Частота кадров : 23,976 кадра/сек
Цветовое пространство : YUV
Субдискретизация насыщенности : 4:2:0
Битовая глубина : 8 бит
Тип развёртки : Прогрессивная
Метод сжатия : С потерями
Бит/(Пиксели*Кадры) : 0.308
Размер потока : 1,17 Гбайт (80%)
Библиотека кодирования : XviD 73
Аудио #1
Идентификатор : 1
Формат : AC-3
Формат/Информация : Audio Coding 3
Расширение режима : CM (complete main)
Параметр Endianness формата : Big
Идентификатор кодека : 2000
Продолжительность : 1 ч. 44 м.
Вид битрейта : Постоянный
Битрейт : 192 Кбит/сек
Каналы : 2 канала
Расположение каналов : Front: L R
Частота : 48,0 КГц
Битовая глубина : 16 бит
Метод сжатия : С потерями
Размер потока : 143 Мбайт (10%)
Выравнивание : Соединение по промежуткам
Продолжительность промежутка : 64 мс. (1,53 видеокадра)
Время предзагрузки промежутка : 192 мс.
Заголовок : MVO
Аудио #2
Идентификатор : 2
Формат : AC-3
Формат/Информация : Audio Coding 3
Расширение режима : CM (complete main)
Параметр Endianness формата : Big
Идентификатор кодека : 2000
Продолжительность : 1 ч. 44 м.
Вид битрейта : Постоянный
Битрейт : 192 Кбит/сек
Каналы : 2 канала
Расположение каналов : Front: L R
Частота : 48,0 КГц
Битовая глубина : 16 бит
Метод сжатия : С потерями
Размер потока : 143 Мбайт (10%)
Выравнивание : Соединение по промежуткам
Продолжительность промежутка : 64 мс. (1,53 видеокадра)
Время предзагрузки промежутка : 192 мс.
Заголовок : Original
-
-
Download / Скачать

Хотите скачать бесплатно? Зарегистрируйтесь на сайте (ссылка на регистрацию). Pirat.ca - самый быстрый торрент трекер в рунете!

Как скачивать  ·   Что такое торрент  ·   Рейтинг и ограничения

Кристина119

Гроза морей

Пост 09-Май-2017 20:05 (спустя 47 минут)

[Q] 

Давно ждала, спасибо Лови бочку
[Профиль]  [ЛС] 

realyu

Корсар

Пост 09-Май-2017 23:45 (спустя 3 часа)

[Q] 

удалено, дабы у Курочки (ник такой) пукан не разрывало
[Профиль]  [ЛС] 

COSMO

Штурман

Пост 11-Май-2017 15:10 (спустя 1 день 15 часов)

[Q] 

Ужасов тут нет. Фильм ремейк какого то старого фильма, название я уж не вспомню. Один в один, я думал у меня дежа-вю.
Там было переселение души, в тело нового носителя - тут гипноз и пересадка части мозга.
Там ужасы - тут фантастика и триллер (при чем слабенький)
Там кончилось все плохо для ГГ - тут хэппи-энд.
Как то так. bk
[Профиль]  [ЛС] 

succube

Шкипер

Пост 11-Май-2017 21:14 (спустя 6 часов)

[Q] 

предположу что вы про фильм - ключ от всех дверей, этот фильм послабее,но можно разок и посмотреть
[Профиль]  [ЛС] 

Gravida

Гроза морей

2087

Пост 13-Май-2017 06:32 (спустя 1 день 9 часов)

[Q] 

Очень похоже на ремейк. Что-то похожее уже было. Фильм - на раз, если -не посмотрел, ничего и не потерял.
Раздающему респект!
[Профиль]  [ЛС] 

Мания величия

Морской Волк

Пост 16-Май-2017 00:18 (спустя 2 дня 17 часов)

[Q] 

честно нифига толком не понятно че для чего и с чем.... но раздающему респектон и бочка остальным поддерживающим уважуха за досыл остальных байтов!!! постою на раздаче

_________________
[Профиль]  [ЛС] 

the_lame

Флибустьер

Пост 17-Май-2017 15:25 (спустя 1 день 15 часов)

[Q] 

796923Ужасов тут нет. Фильм ремейк какого то старого фильма, название я уж не вспомню. Один в один, я думал у меня дежа-вю.
Там было переселение души, в тело нового носителя - тут гипноз и пересадка части мозга.
Там ужасы - тут фантастика и триллер (при чем слабенький)
Там кончилось все плохо для ГГ - тут хэппи-энд.
Как то так. bk
Вот скажи, зачем мне теперь зачем мне теперь фильм качать? Тебя за спойлеры еще не били?
[Профиль]  [ЛС] 

Пират Пиратович

3054

Пост 21-Май-2017 04:21 (спустя 3 дня)

[Q] 

797351
796923Ужасов тут нет. Фильм ремейк какого то старого фильма, название я уж не вспомню. Один в один, я думал у меня дежа-вю.
Там было переселение души, в тело нового носителя - тут гипноз и пересадка части мозга.
Там ужасы - тут фантастика и триллер (при чем слабенький)
Там кончилось все плохо для ГГ - тут хэппи-энд.
Как то так. bk
Вот скажи, зачем мне теперь зачем мне теперь фильм качать? Тебя за спойлеры еще не били?
Ну ты юморист...

_________________
[Профиль]  [ЛС] 

bolobol

Флибустьер

112

Пост 30-Май-2017 18:45 (спустя 9 дней)

[Q] 

неплохой фильмец Лови бочку

_________________
[Профиль]  [ЛС] 

lexaspirit

Пост 28-Авг-2017 22:55 (спустя 2 месяца 29 дней)

[Q] 

Фильм своеобразный. Один из лучших фильмов просмотренный мной за последнее время

_________________
-------------------- ----------------------
[Профиль]  [ЛС] 

snoyyyy

Штурман

Пост 04-Сен-2017 10:22 (спустя 6 дней)

[Q] 

Какие противоречивые коменты))) Посмотрю отпишусь ...
[Профиль]  [ЛС] 

ketzer

Корсар

Пост 09-Фев-2018 23:10 (спустя 5 месяцев 5 дней)

[Q] 

Объясните, пожалуйста, как эту чепуху категории Б выдвинули на оскар и другие награды? Сюжет тупой, в конце оказывается именно то, что можно выбрать из самых глупых догадок после первых 40 минут фильма, никаких неожиданностей, ничего оригинального, жанр мечется между хоррором и комедией, падая от усталости в конце. И даже на такой мелочи, как грим, слажали феноменально.
[Профиль]  [ЛС] 

qqq25691

Шкипер

Пост 15-Фев-2018 01:19 (спустя 5 дней)

[Q] 

Мне ОЧЕНЬ понравилось
[Профиль]  [ЛС] 
Показать сообщения:    
Ответить на тему

Текущее время: Сегодня 11:38

Часовой пояс: GMT + 4



Вы не можете начинать темы
Вы не можете отвечать на сообщения
Вы не можете редактировать свои сообщения
Вы не можете удалять свои сообщения
Вы не можете голосовать в опросах
Вы не можете прикреплять файлы к сообщениям
Вы не можете скачивать файлы

▼ Вниз