Уважаемый Гость!
Вы можете поддержать проект и зарегистрироваться у наших партнеров - онлайн-стратегия MyLands. При регистрации в игре Вы получите код, который сможете активировать после регистрации на pirat.ca и получить 1000 дублонов.

Ваш код:
73d64b90fc5ae53d904d52efe573277197816f69
 
     

Хижина / The Shack (Стюарт Хэзелдайн / Stuart Hazeldine) [2017 г., фэнтези, драма, WEB-DLRip] MVO

Ответить на тему
 
Автор
Сообщение

Пост 19-Май-2017 15:36

[Q] 

ara1205

-Хижина / The Shack-- Производство: США
Год выпуска: 2017 г.
Жанр: фэнтези, драма
Продолжительность: 02:13:28
Мировая премьера: 1 марта 2017
Перевод: Любительский (многоголосый, закадровый) [КОЛОБОК]-Режиссер: Стюарт Хэзелдайн / Stuart Hazeldine-В ролях: Сэм Уортингтон, Октавия Спенсер, Тим МакГроу, Рада Митчелл, Меган Чарпентье, Гейдж Манро, Амели Ив, Сумирэ Мацубара, Алиси Брага-Описание: Мистические события происходят в судьбе главного героя, переживающего трагедию. Он получает личное приглашение встретиться с самим Всевышним в очень уединенном месте…- -Качество видео: WEB-DLRip
Контейнер: AVI
Видео кодек: XviD
Аудио кодек: AC3
Видео: 720х304, 23.976 fps, 1265 Kbps, 0.241 bits/pixel
Аудио: 48 kHz, AC3 Dolby Digital, 2 ch, 192 Kbps
Cубтитры: отсутствуют-
C:\Users\Admin\Videos\Хижина\The.Shack.2017.P.WEB-DLRip.14OOMB.avi
General
Complete name : C:\Users\Admin\Videos\Хижина\The.Shack.2017.P.WEB-DLRip.14OOMB.avi
Format : AVI
Format/Info : Audio Video Interleave
File size : 1.37 GiB
Duration : 2 h 13 min
Overall bit rate : 1 466 kb/s
Writing application : VirtualDubMod 1.5.10.2 (build 2540/release)
Writing library : VirtualDubMod build 2540/release
Video #0
ID : 0
Format : MPEG-4 Visual
Format profile : Advanced [email protected]
Format settings, BVOP : 2
Format settings, QPel : No
Format settings, GMC : No warppoints
Format settings, Matrix : Default (MPEG)
Codec ID : XVID
Codec ID/Hint : XviD
Duration : 2 h 13 min
Bit rate : 1 265 kb/s
Width : 720 pixels
Height : 304 pixels
Display aspect ratio : 2.35:1
Frame rate : 23.976 (24000/1001) FPS
Color space : YUV
Chroma subsampling : 4:2:0
Bit depth : 8 bits
Scan type : Progressive
Compression mode : Lossy
Bits/(Pixel*Frame) : 0.241
Stream size : 1.18 GiB (86%)
Writing library : XviD 1.2.1 (UTC 2008-12-04)
Audio #1
ID : 1
Format : AC-3
Format/Info : Audio Coding 3
Mode extension : CM (complete main)
Format settings, Endianness : Big
Codec ID : 2000
Duration : 2 h 13 min
Bit rate mode : Constant
Bit rate : 192 kb/s
Channel(s) : 2 channels
Channel positions : Front: L R
Sampling rate : 48.0 kHz
Frame rate : 31.250 FPS (1536 spf)
Compression mode : Lossy
Stream size : 183 MiB (13%)
Alignment : Split accross interleaves
Interleave, duration : 42 ms (1.00 video frame)
Interleave, preload duration : 500 ms
-
-ВНИМАНИЕ!!! В ВИДЕОФАЙЛЕ ПРИСУТСТВУЕТ РЕКЛАМА!!!-
Download / Скачать

Хотите скачать бесплатно? Зарегистрируйтесь на сайте (ссылка на регистрацию). Pirat.ca - самый быстрый торрент трекер в рунете!

Как скачивать  ·   Что такое торрент  ·   Рейтинг и ограничения

swallow13

Шкипер

Пост 20-Май-2017 04:39 (спустя 13 часов)

[Q] 

Гляну в выходной, отпишусь...
[Профиль]  [ЛС] 

andreiex

Морской Волк

Пост 20-Май-2017 15:49 (спустя 11 часов)

[Q] 

Осторожно гляну на фильм, где есть "личное приглашение встретиться с самим Всевышним"....
[Профиль]  [ЛС] 

ketzer

Корсар

Пост 20-Май-2017 22:12 (спустя 6 часов)

[Q] 

"Он получает личное приглашение встретиться с самим Всевышним в очень уединенном месте…"
В гробу штоль?
[Профиль]  [ЛС] 

igor-cymbala

Лоцман

Пост 21-Май-2017 01:05 (спустя 2 часа 53 минуты)

[Q] 

797546"Он получает личное приглашение встретиться с самим Всевышним в очень уединенном месте…"
В гробу штоль?
Нет. В хижине убийцы. Очень надеюсь, что сценаристы не испортят впечатление о книге.
[Профиль]  [ЛС] 

tva018

Лоцман

Пост 26-Май-2017 01:19 (спустя 5 дней)

[Q] 

очень глубокое кино, глоток воздуха.....
[Профиль]  [ЛС] 

realleo

Корсар

Пост 26-Май-2017 03:39 (спустя 2 часа 20 минут)

[Q] 

глоток какого воздуха? спертой тухлятины? за насилие над детьми надо сажать пожизненно, и никакого прощения! а эти пиндосы опять дудят в свою дудку. фильм не столько фильм, сколько скрытая политика
[Профиль]  [ЛС] 

lightmaster

Гроза морей

Пост 26-Май-2017 17:29 (спустя 13 часов)

[Q] 

realleo, согласен полностью!!!
[Профиль]  [ЛС] 
Показать сообщения:    
Ответить на тему

Текущее время: Сегодня 02:30

Часовой пояс: GMT + 4



Вы не можете начинать темы
Вы не можете отвечать на сообщения
Вы не можете редактировать свои сообщения
Вы не можете удалять свои сообщения
Вы не можете голосовать в опросах
Вы не можете прикреплять файлы к сообщениям
Вы не можете скачивать файлы

▼ Вниз