ML
     
  Уважаемый Гость!
Вы можете поддержать проект и зарегистрироваться у наших партнеров - онлайн-стратегия MyLands. При регистрации в игре Вы получите код, который сможете активировать после регистрации на pirat.ca и получить 1000 дублонов.

Ваш код:
334e42023a6f16a99ea6fcb0a6c615a324f6a3ad
 
     

Матрица времени / Before I Fall (Ри Руссо-Янг / Ry Russo-Young) [2017 г., триллер, драма, детектив, HDRip] MVO

Ответить на тему
 
Автор
Сообщение

Пост 19-Май-2017 16:08

[Q] 

ara1205

-Матрица времени / Before I Fall-- Производство: США
Год выпуска: 2017 г.
Жанр: триллер, драма, детектив
Продолжительность: 01:39:59
Мировая премьера: 21 января 2017
Российская премьера: 20 июля 2017
Перевод: Любительский (многоголосый, закадровый) [КОЛОБОК]-Режиссер: Ри Руссо-Янг / Ry Russo-Young-В ролях: Зои Дойч, Холстон Сейдж, Логан Миллер, Киан Лоули, Елена Кампурис, Синти У, Медальон Рахими, Эрика Тремблэй, Лив Хьюсон, Николас Ли-Описание: Саманта — крутая девчонка, которой всегда и во всем везло. Но в тот день, в пятницу, 12 февраля, что-то пошло не так, а потом та авария на трассе… Саманта оказалась в заколдованном круге проклятого дня, и теперь она вынуждена проживать ужас той пятницы снова и снова. Чтобы распутать петлю времени, она должна вычислить ошибку и исправить неверный шаг. Но каждый раз что-то не срабатывает…- -Качество видео: HDRip
Контейнер: AVI
Видео кодек: XviD
Аудио кодек: AC3
Видео: 720х304, 23.976 fps, 1504 Kbps, 0.287 bits/pixel
Аудио: 48 kHz, AC3 Dolby Digital, 2 ch, 448 Kbps
Cубтитры: отсутствуют-
C:\Users\Admin\Videos\Матрица времени\Beforeifall.2017.P.HDRip.14OOMB.avi
General
Complete name : C:\Users\Admin\Videos\Матрица времени\Beforeifall.2017.P.HDRip.14OOMB.avi
Format : AVI
Format/Info : Audio Video Interleave
File size : 1.37 GiB
Duration : 1 h 39 min
Overall bit rate : 1 961 kb/s
Writing application : VirtualDubMod 1.5.10.2 (build 2540/release)
Writing library : VirtualDubMod build 2540/release
Video #0
ID : 0
Format : MPEG-4 Visual
Format profile : Advanced [email protected]
Format settings, BVOP : 2
Format settings, QPel : No
Format settings, GMC : No warppoints
Format settings, Matrix : Default (MPEG)
Codec ID : XVID
Codec ID/Hint : XviD
Duration : 1 h 39 min
Bit rate : 1 504 kb/s
Width : 720 pixels
Height : 304 pixels
Display aspect ratio : 2.35:1
Frame rate : 23.976 (24000/1001) FPS
Color space : YUV
Chroma subsampling : 4:2:0
Bit depth : 8 bits
Scan type : Progressive
Compression mode : Lossy
Bits/(Pixel*Frame) : 0.287
Stream size : 1.05 GiB (77%)
Writing library : XviD 1.2.1 (UTC 2008-12-04)
Audio #1
ID : 1
Format : AC-3
Format/Info : Audio Coding 3
Mode extension : CM (complete main)
Format settings, Endianness : Big
Codec ID : 2000
Duration : 1 h 39 min
Bit rate mode : Constant
Bit rate : 448 kb/s
Channel(s) : 2 channels
Channel positions : Front: L R
Sampling rate : 48.0 kHz
Frame rate : 31.250 FPS (1536 spf)
Compression mode : Lossy
Delay relative to video : 24 ms
Stream size : 320 MiB (23%)
Alignment : Split accross interleaves
Interleave, duration : 42 ms (1.00 video frame)
Interleave, preload duration : 500 ms
-
-ВНИМАНИЕ!!! В ВИДЕОФАЙЛЕ ПРИСУТСТВУЕТ РЕКЛАМА!!!-
Download / Скачать

Хотите скачать бесплатно? Зарегистрируйтесь на сайте (ссылка на регистрацию). Pirat.ca - самый быстрый торрент трекер в рунете!

Как скачивать  ·   Что такое торрент  ·   Рейтинг и ограничения

swallow13

Шкипер

Пост 20-Май-2017 04:33 (спустя 12 часов)

[Q] 

Это что? Очередной 11:14? Кто посмотрел из 80-ти скачавших, отпишитесь - стоит смотреть?
[Профиль]  [ЛС] 

Daar

Пост 21-Май-2017 23:42 (спустя 1 день 19 часов)

[Q] 

Кто посмотрел, отпишитесь.
[Профиль]  [ЛС] 

rampage-2

Шкипер

Пост 22-Май-2017 12:10 (спустя 12 часов)

[Q] 

Ну так себе фильм, не чего особого, ну на раз можно взглянуть.
На любителя Автору респект!!!
[Профиль]  [ЛС] 
Показать сообщения:    
Ответить на тему

Текущее время: Сегодня 04:11

Часовой пояс: GMT + 4



Вы не можете начинать темы
Вы не можете отвечать на сообщения
Вы не можете редактировать свои сообщения
Вы не можете удалять свои сообщения
Вы не можете голосовать в опросах
Вы не можете прикреплять файлы к сообщениям
Вы не можете скачивать файлы

▼ Вниз