ML
     
  Уважаемый Гость!
Вы можете поддержать проект и зарегистрироваться у наших партнеров - онлайн-стратегия MyLands. При регистрации в игре Вы получите код, который сможете активировать после регистрации на pirat.ca и получить 1000 дублонов.

Ваш код:
0d6a1c359a02bdc5a8162567872e4147f20a43e8
 
     

Гончие любви / Hounds of Love (Бен Янг / Ben Young) [2016 г., ужасы, триллер, драма, криминал, детектив, WEB-DLRip] MVO

Ответить на тему
 
Автор
Сообщение

Пост 19-Май-2017 17:18

[Q] 

ara1205

-Гончие любви / Hounds of Love-- Производство: Австралия
Год выпуска: 2016 г.
Жанр: ужасы, триллер, драма, криминал, детектив
Продолжительность: 01:48:58
Перевод: Любительский (многоголосый, закадровый) [Синема УС]-Режиссер: Бен Янг / Ben Young-В ролях: Эмма Бут, Эшли Каммингс, Стефен Керри, Сьюзи Портер, Дэмиан Де Монтема, Харрисон Гилбертсон, Флетчер Хамфрис, Стив Тернер, Холли Джонс-Описание: Перт, Западная Австралия, 1987 год. Психопат Джон и эмоционально зависимая от него подруга Эвелин развлекаются похищением старшеклассниц — привозят девушек к себе домой, связывают, насилуют, убивают и тела закапывают в лесу. Родители 17-летней Вики Малоуни находятся в состоянии развода, отношения с матерью не клеятся, поэтому ночью девушка сбегает на вечеринку и по пути попадает в лапы парочке маньяков. Наблюдая за их нездоровыми отношениями, Вики понимает, что её единственный шанс на спасение — настроить Эвелин против Джона.- Качество видео: WEB-DLRip
Контейнер: AVI
Видео кодек: XviD
Аудио кодек: AC3
Видео: 720х304, 24 fps, 1595 Kbps, 0.304 bits/pixel
Аудио: 48 kHz, AC3 Dolby Digital, 2 ch, 192 Kbps
Cубтитры: отсутствуют-
C:\Users\Admin\Videos\Гончие любви\Hounds.of.Love.2016.P.WEB-DLRip.14OOMB.avi
General
Complete name : C:\Users\Admin\Videos\Гончие любви\Hounds.of.Love.2016.P.WEB-DLRip.14OOMB.avi
Format : AVI
Format/Info : Audio Video Interleave
File size : 1.37 GiB
Duration : 1 h 48 min
Overall bit rate : 1 796 kb/s
Writing application : VirtualDubMod 1.5.10.2 (build 2540/release)
Writing library : VirtualDubMod build 2540/release
Video #0
ID : 0
Format : MPEG-4 Visual
Format profile : Advanced [email protected]
Format settings, BVOP : 2
Format settings, QPel : No
Format settings, GMC : No warppoints
Format settings, Matrix : Default (MPEG)
Codec ID : XVID
Codec ID/Hint : XviD
Duration : 1 h 48 min
Bit rate : 1 595 kb/s
Width : 720 pixels
Height : 304 pixels
Display aspect ratio : 2.35:1
Frame rate : 24.000 FPS
Color space : YUV
Chroma subsampling : 4:2:0
Bit depth : 8 bits
Scan type : Progressive
Compression mode : Lossy
Bits/(Pixel*Frame) : 0.304
Stream size : 1.21 GiB (89%)
Writing library : XviD 1.2.1 (UTC 2008-12-04)
Audio #1
ID : 1
Format : AC-3
Format/Info : Audio Coding 3
Mode extension : CM (complete main)
Format settings, Endianness : Big
Codec ID : 2000
Duration : 1 h 48 min
Bit rate mode : Constant
Bit rate : 192 kb/s
Channel(s) : 2 channels
Channel positions : Front: L R
Sampling rate : 48.0 kHz
Frame rate : 31.250 FPS (1536 spf)
Compression mode : Lossy
Stream size : 150 MiB (11%)
Alignment : Split accross interleaves
Interleave, duration : 42 ms (1.00 video frame)
Interleave, preload duration : 500 ms
-
-ВНИМАНИЕ!!! В ВИДЕОФАЙЛЕ ПРИСУТСТВУЕТ РЕКЛАМА!!!-
Download / Скачать

Хотите скачать бесплатно? Зарегистрируйтесь на сайте (ссылка на регистрацию). Pirat.ca - самый быстрый торрент трекер в рунете!

Как скачивать  ·   Что такое торрент  ·   Рейтинг и ограничения

Показать сообщения:    
Ответить на тему

Текущее время: Сегодня 12:55

Часовой пояс: GMT + 4



Вы не можете начинать темы
Вы не можете отвечать на сообщения
Вы не можете редактировать свои сообщения
Вы не можете удалять свои сообщения
Вы не можете голосовать в опросах
Вы не можете прикреплять файлы к сообщениям
Вы не можете скачивать файлы

▼ Вниз