ML
     
  Уважаемый Гость!
Вы можете поддержать проект и зарегистрироваться у наших партнеров - онлайн-стратегия MyLands. При регистрации в игре Вы получите код, который сможете активировать после регистрации на pirat.ca и получить 1000 дублонов.

Ваш код:
334e42023a6f16a99ea6fcb0a6c615a324f6a3ad
 
     

Последний убийца драконов / The Last Dragonslayer (Jamie Magnus Stone) [2016 г., фэнтези, комедия, приключения, HDTVRip] MVO

Ответить на тему
 
Автор
Сообщение

Пост 19-Май-2017 22:22

[Q] 

ara1205

-Последний убийца драконов / The Last Dragonslayer-- Производство: Великобритания
Год выпуска: 2016 г.
Жанр: фэнтези, комедия, приключения
Продолжительность: 01:41:20
Перевод: Любительский (многоголосый, закадровый) [Синема УС]-Режиссер: Jamie Magnus Stone-В ролях: Адиль Ахтар, Мэтт Берри, Даниэль Бьелич, Джон Брэдли, Эндрю Бакан, Джилл Бьюкэнэн, Фиби Кэмпбелл, Колин Майкл Кармайкл, Элизабет Чан, Анна Чэнселлор-Описание: В старые добрые времена магия была необходима — она могла сохранить королевство и прочистить забившуюся канализацию. Но теперь магия исчезает: сливной фильтр дешевле, чем заклинание, а волшебные ковры используются для доставки пиццы. Пятнадцатилетняя сирота Дженнифер Стрейндж работает в «Казаме», агентстве по найму волшебников, но в дни, когда магия выдыхается, всё труднее оставаться на плаву. А потом начинаются видения, предсказывающие смерть последнего дракона мира от рук неизвестного Убийцы драконов. Если видения окажутся правдой, то для «Казама» и Дженнифер всё изменится навсегда.- -Качество видео: HDTVRip
Контейнер: AVI
Видео кодек: XviD
Аудио кодек: AC3
Видео: 720х352, 25 fps, 1759 Kbps, 0.273 bits/pixel
Аудио: 48 kHz, AC3 Dolby Digital, 2 ch, 192 Kbps
Cубтитры: отсутствуют-
Общее
Полное имя : C:\Users\Admin\Pictures\Последний убийца драконов\The.Last.Dragonslayer.2016.P.HDTVRip.14OOMB.avi
Формат : AVI
Формат/Информация : Audio Video Interleave
Размер файла : 1,37 Гбайт
Продолжительность : 1 ч. 41 м.
Общий поток : 1931 Кбит/сек
Программа кодирования : VirtualDubMod 1.5.10.2 (build 2540/release)
Библиотека кодирования : VirtualDubMod build 2540/release
Видео
Идентификатор : 0
Формат : MPEG-4 Visual
Профиль формата : Advanced [email protected]
Параметр BVOP формата : 2
Параметр QPel формата : Нет
Параметр GMC формата : Без точки перехода
Параметр матрицы формата : Default (MPEG)
Идентификатор кодека : XVID
Идентификатор кодека/Подсказка : XviD
Продолжительность : 1 ч. 41 м.
Битрейт : 1729 Кбит/сек
Ширина : 720 пикселей
Высота : 352 пикселя
Соотношение сторон : 2,045
Частота кадров : 25,000 кадров/сек
Цветовое пространство : YUV
Субдискретизация насыщенности : 4:2:0
Битовая глубина : 8 бит
Тип развёртки : Прогрессивная
Метод сжатия : С потерями
Бит/(Пиксели*Кадры) : 0.273
Размер потока : 1,22 Гбайт (90%)
Библиотека кодирования : XviD 1.2.1 (UTC 2008-12-04)
Аудио
Идентификатор : 1
Формат : AC-3
Формат/Информация : Audio Coding 3
Расширение режима : CM (complete main)
Параметр Endianness формата : Big
Идентификатор кодека : 2000
Продолжительность : 1 ч. 41 м.
Вид битрейта : Постоянный
Битрейт : 192 Кбит/сек
Каналы : 2 канала
Расположение каналов : Front: L R
Частота : 48,0 КГц
Битовая глубина : 16 бит
Метод сжатия : С потерями
Размер потока : 139 Мбайт (10%)
Выравнивание : Разделение по промежуткам
Продолжительность промежутка : 40 мс. (1,00 видеокадр)
Время предзагрузки промежутка : 500 мс.
-
-ВНИМАНИЕ!!! В ВИДЕОФАЙЛЕ ПРИСУТСТВУЕТ РЕКЛАМА!!!-
Download / Скачать

Хотите скачать бесплатно? Зарегистрируйтесь на сайте (ссылка на регистрацию). Pirat.ca - самый быстрый торрент трекер в рунете!

Как скачивать  ·   Что такое торрент  ·   Рейтинг и ограничения

freese

Шкипер

35

Пост 20-Май-2017 00:05 (спустя 1 час 42 минуты)

[Q] 

Спасибо!!!
[Профиль]  [ЛС] 

swallow13

Шкипер

Пост 20-Май-2017 04:27 (спустя 4 часа)

[Q] 

Заценим дракошей!
[Профиль]  [ЛС] 

andreiex

Морской Волк

Пост 20-Май-2017 12:56 (спустя 8 часов)

[Q] 

Раздающему респект!
Качаю ради Фиби Кемпбелл.
[Профиль]  [ЛС] 

realleo

Морской Волк

Пост 26-Май-2017 03:35 (спустя 5 дней)

[Q] 

низкобюджетный ТРЭШАК! из спецэффектов - кукольные драконы ))) фильм для 87-90 годов! зачем такое снимают сейчас - непонятно. не тратьте попусту время
[Профиль]  [ЛС] 
Показать сообщения:    
Ответить на тему

Текущее время: Сегодня 04:12

Часовой пояс: GMT + 4



Вы не можете начинать темы
Вы не можете отвечать на сообщения
Вы не можете редактировать свои сообщения
Вы не можете удалять свои сообщения
Вы не можете голосовать в опросах
Вы не можете прикреплять файлы к сообщениям
Вы не можете скачивать файлы

▼ Вниз