ML
     
  Уважаемый Гость!
Вы можете поддержать проект и зарегистрироваться у наших партнеров - онлайн-стратегия MyLands. При регистрации в игре Вы получите код, который сможете активировать после регистрации на pirat.ca и получить 1000 дублонов.

Ваш код:
4a274f53b33d6ca384ead601b165a45d169c54c0
 
     

Красавица и чудовище / Beauty and the Beast (Билл Кондон / Bill Condon) [2017 г., мюзикл, фэнтези, мелодрама, семейный, WEBRip] Dub [Звук с CAMRip] + Sub (Kor)

Ответить на тему
 
Автор
Сообщение

Пост 19-Май-2017 23:53

[Q] 

ara1205

-Красавица и чудовище / Beauty and the Beast-- Производство: США
Год выпуска: 2017 г.
Жанр: мюзикл, фэнтези, мелодрама, семейный
Продолжительность: 02:05:45
Мировая премьера: 23 февраля 2017
Российская премьера: 16 марта 2017
Перевод: Профессиональный (полное дублирование) [Звук с CAMRip]-Режиссер: Билл Кондон / Bill Condon-В ролях: Эмма Уотсон, Дэн Стивенс, Люк Эванс, Джош Гад, Кевин Клайн, Хэтти Морахэн, Хейдн Гвин, Джерард Хоран, Рэй Фиарон, Юэн МакГрегор-Описание: Обозлённая Волшебница превратила принца Адама в отвратительное чудовище за то, что тот был злым, самовлюблённым и грубым. Чтобы снять чары с себя и слуг своего замка, ему необходимо научиться быть добрым, любить и быть любимым. Произойти это должно до того, как с розы, подаренной Волшебницей, упадёт последний лепесток.
В далёкой деревушке живёт красивая девушка по имени Белль. Однажды её отец Морис отправляется на ярмарку, но по дороге сбивается с пути. Оказавшись в заколдованном замке, он становится пленником Чудовища. Белль спешит отцу на помощь.- -Качество видео: WEBRip
Контейнер: AVI
Видео кодек: XviD
Аудио кодек: AC3
Видео: 720х304, 25 fps, 1354 Kbps, 0.247 bits/pixel
Аудио: 48 kHz, AC3 Dolby Digital, 2 ch, 192 Kbps
Cубтитры: Не отключаемые Корейские-
Общее
Полное имя : C:\Users\Admin\Pictures\Красавица и чудовище\Beauty.and.the.Beast.2O17.Dt.HDTVRip.14OOMB.avi
Формат : AVI
Формат/Информация : Audio Video Interleave
Размер файла : 1,37 Гбайт
Продолжительность : 2 ч. 5 м.
Общий поток : 1556 Кбит/сек
Программа кодирования : VirtualDubMod 1.5.10.2 (build 2540/release)
Библиотека кодирования : VirtualDubMod build 2540/release
Видео
Идентификатор : 0
Формат : MPEG-4 Visual
Профиль формата : Advanced [email protected]
Параметр BVOP формата : 2
Параметр QPel формата : Нет
Параметр GMC формата : Без точки перехода
Параметр матрицы формата : Default (MPEG)
Идентификатор кодека : XVID
Идентификатор кодека/Подсказка : XviD
Продолжительность : 2 ч. 5 м.
Битрейт : 1354 Кбит/сек
Ширина : 720 пикселей
Высота : 304 пикселя
Соотношение сторон : 2,35:1
Частота кадров : 25,000 кадров/сек
Цветовое пространство : YUV
Субдискретизация насыщенности : 4:2:0
Битовая глубина : 8 бит
Тип развёртки : Прогрессивная
Метод сжатия : С потерями
Бит/(Пиксели*Кадры) : 0.247
Размер потока : 1,19 Гбайт (87%)
Библиотека кодирования : XviD 1.2.1 (UTC 2008-12-04)
Аудио
Идентификатор : 1
Формат : AC-3
Формат/Информация : Audio Coding 3
Расширение режима : CM (complete main)
Параметр Endianness формата : Big
Идентификатор кодека : 2000
Продолжительность : 2 ч. 5 м.
Вид битрейта : Постоянный
Битрейт : 192 Кбит/сек
Каналы : 2 канала
Расположение каналов : Front: L R
Частота : 48,0 КГц
Битовая глубина : 16 бит
Метод сжатия : С потерями
Размер потока : 173 Мбайт (12%)
Выравнивание : Разделение по промежуткам
Продолжительность промежутка : 40 мс. (1,00 видеокадр)
Время предзагрузки промежутка : 500 мс.
-
-ВНИМАНИЕ!!! В ВИДЕОФАЙЛЕ ПРИСУТСТВУЕТ РЕКЛАМА!!!-
Download / Скачать

Хотите скачать бесплатно? Зарегистрируйтесь на сайте (ссылка на регистрацию). Pirat.ca - самый быстрый торрент трекер в рунете!

Как скачивать  ·   Что такое торрент  ·   Рейтинг и ограничения

Daar

Пост 21-Май-2017 23:41 (спустя 1 день 23 часа)

[Q] 

Хотел с детьми в кино сходить, но когда узнал что там присутствует пидоросятина решил не идти.
[Профиль]  [ЛС] 

randy78

Лоцман

Пост 21-Май-2017 23:50 (спустя 9 минут)

[Q] 

Его же вроде бы на Российский прокат не хотели пускать из-за гомосятины? Не дай Бог детям показать...
[Профиль]  [ЛС] 

Lonely2oo9

Штурман

Пост 29-Май-2017 01:48 (спустя 7 дней)

[Q] 

Решил нож купить, в итоге прочитал что это частое орудие убийства - покупать не стал.
Решил на море поехать, но когда узнал что на море водятся акулы решил не ехать.

Просто мусор... an
[Профиль]  [ЛС] 
Показать сообщения:    
Ответить на тему

Текущее время: Сегодня 04:07

Часовой пояс: GMT + 4



Вы не можете начинать темы
Вы не можете отвечать на сообщения
Вы не можете редактировать свои сообщения
Вы не можете удалять свои сообщения
Вы не можете голосовать в опросах
Вы не можете прикреплять файлы к сообщениям
Вы не можете скачивать файлы

▼ Вниз