Уважаемый Гость!
Вы можете поддержать проект и зарегистрироваться у наших партнеров - онлайн-стратегия MyLands. При регистрации в игре Вы получите код, который сможете активировать после регистрации на pirat.ca и получить 1000 дублонов.

Ваш код:
ed90efcf2ad4735c31dff44567b82e9136b702ef
 
     

Shinedown - State Of My Head [2016 г.] (Hard Rock, Alternative Metal, Post-Grunge) [DVDRip, 480p]

Ответить на тему
 
Автор
Сообщение

Пост 25-Май-2017 21:18

[Q] 

Дядя Вова

Гроза морей

-Shinedown - State Of My Head-- Год выпуска: 2016 г.
Страна: Jacksonville, Florida, U.S.
Жанр: Hard Rock, Alternative Metal, Post-Grunge
Продолжительность: 00:03:25-Качество видео: DVDRip
Контейнер: MKV
Стандарт разрешения: 480p
Видео кодек: MPEG4 AVC
Аудио кодек: MP3
Видео: : 704 pixels x 400 pixels : 2 380 Kbps : 23.976 fps :
Аудио: : 268 Kbps : 2 channels : 44.1 KHz :-
1. State Of My Head
General
UniqueID : 234685662832897772474566941722624508158 (0xB08ED086CBC9B319B63C8C8C1C09C0FE)
Complete name : G:\Shinedown-State_Of_My_Head-DVDRip-x264-2015-SRPx\shinedown-state_of_my_head-dvdrip-x264-2015-srpx.mkv
Format : Matroska
File size : 66.2 MiB
Duration : 3mn 25s
Overall bit rate : 2 701 Kbps
Encoded date : UTC 2017-05-25 01:45:52
Writing application : mkvmerge v9.5.0 ('Quiet Fire') 64bit
Writing library : libebml v1.3.4 + libmatroska v1.4.5
Video
ID : 1
Format : AVC
Format/Info : Advanced Video Codec
Format profile : [email protected]
Format settings, CABAC : Yes
Format settings, ReFrames : 5 frames
Format settings, GOP : M=1, N=16
Codec ID : V_MPEG4/ISO/AVC
Duration : 3mn 25s
Bit rate : 2 380 Kbps
Width : 704 pixels
Height : 400 pixels
Display aspect ratio : 2.085
Original display aspect ratio : 2.086
Frame rate : 23.976 fps
Color space : YUV
Chroma subsampling : 4:2:0
Bit depth : 8 bits
Scan type : Progressive
Bits/(Pixel*Frame) : 0.353
Stream size : 58.4 MiB (88%)
Writing library : x264 core 148 r2762 90a61ec
Encoding settings : cabac=1 / ref=5 / deblock=1:-1:-1 / analyse=0x1:0x131 / me=umh / subme=9 / psy=1 / psy_rd=1.00:0.00 / mixed_ref=1 / me_range=24 / chroma_me=1 / trellis=1 / 8x8dct=0 / cqm=0 / deadzone=21,11 / fast_pskip=0 / chroma_qp_offset=-2 / threads=12 / lookahead_threads=3 / sliced_threads=0 / nr=0 / decimate=1 / interlaced=0 / bluray_compat=0 / constrained_intra=0 / bframes=16 / b_pyramid=2 / b_adapt=2 / b_bias=0 / direct=3 / weightb=1 / open_gop=0 / weightp=2 / keyint=250 / keyint_min=23 / scenecut=40 / intra_refresh=0 / rc_lookahead=60 / rc=crf / mbtree=1 / crf=15.0 / qcomp=0.60 / qpmin=0 / qpmax=69 / qpstep=4 / ip_ratio=1.40 / aq=1:1.00
Language : English
Audio
ID : 2
Format : MPEG Audio
Format version : Version 1
Format profile : Layer 3
Mode : Joint stereo
Codec ID : A_MPEG/L3
Codec ID/Hint : MP3
Duration : 3mn 25s
Bit rate mode : Variable
Bit rate : 268 Kbps
Minimum bit rate : 32.0 Kbps
Channel(s) : 2 channels
Sampling rate : 44.1 KHz
Compression mode : Lossy
Video delay : -887ms
Stream size : 6.56 MiB (10%)
Writing library : LAME3.98r
Encoding settings : -m j -V 0 -q 0 -lowpass 19.5 --vbr-new -b 32
Download / Скачать

Хотите скачать бесплатно? Зарегистрируйтесь на сайте (ссылка на регистрацию). Pirat.ca - самый быстрый торрент трекер в рунете!

Как скачивать  ·   Что такое торрент  ·   Рейтинг и ограничения

Показать сообщения:    
Ответить на тему

Текущее время: Сегодня 16:06

Часовой пояс: GMT + 4



Вы не можете начинать темы
Вы не можете отвечать на сообщения
Вы не можете редактировать свои сообщения
Вы не можете удалять свои сообщения
Вы не можете голосовать в опросах
Вы не можете прикреплять файлы к сообщениям
Вы не можете скачивать файлы

▼ Вниз