Уважаемый Гость!
Вы можете поддержать проект и зарегистрироваться у наших партнеров - онлайн-стратегия MyLands. При регистрации в игре Вы получите код, который сможете активировать после регистрации на pirat.ca и получить 1000 дублонов.

Ваш код:
37fd1eaca5437abdb08902536dc9a264c723d480
 
     

Холодное танго (Павел Чухрай) [2017 г., Мелодрама, военный, драма, история, WEB-DLRip]

Ответить на тему
 
Автор
Сообщение

Пост 27-Июл-2017 09:28

[Q] 

Су-34

Гроза морей

-Холодное танго- -Производство: Россия
Режиссёр: Павел Чухрай
Жанр: Мелодрама, военный, драма, история
Год выпуска: 2017 г.
Продолжительность: 01:42:23
Российская премьера: 22 июня 2017, «WDSSPR»-В ролях: Риналь Мухаметов, Юлия Пересильд, Елисей Никандров, Ася Громова, Сергей Гармаш, Дайнюс Казлаускас, Моника Санторо, Анна Котова-Дерябина, Мария Малиновская, Андрюс Бялобжескис, Алексей Ингелевич, Александр Резалин, Карина Каграманян-Описание: Он чудом избежал смерти, чтобы вернуться в дом, где родился. В дом, в котором теперь живет любовь всей его жизни. Но надежда на счастье оборачивается страшным открытием. Его возлюбленная — дочь его врага.-Сэмпл КиноПоиск-Качество видео: WEB-DLRip
Контейнер: AVI
Видео кодек: XviD
Аудио кодек: AC3
Видео: 704x384 (1.85:1), 25.000 fps, XviD build 73, 1649 Kbps, 0.24 Bits/Pixel
Аудио: 48 kHz, AC3 Dolby Digital, 3/2 (L,C,R,l,r) + LFE ch, 384 Kbps
Cубтитры: отсутствуют
Complete name : Downloads\Kholodnoe.tango.2017.WEB-DLRip
Format : AVI
Format/Info : Audio Video Interleave
File size : 1.46 GiB
Duration : 1h 42mn
Overall bit rate : 2 043 Kbps
Writing application : VirtualDubMod 1.5.10.2 (build 2540/release)
Writing library : VirtualDubMod build 2540/release
Video #0
ID : 0
Format : MPEG-4 Visual
Format profile : Advanced [email protected]
Format settings, BVOP : 1
Format settings, QPel : No
Format settings, GMC : No warppoints
Format settings, Matrix : Custom
Codec ID : XVID
Codec ID/Hint : XviD
Duration : 1h 42mn
Bit rate : 1 649 Kbps
Width : 704 pixels
Height : 384 pixels
Display aspect ratio : 1.85:1
Frame rate : 25.000 fps
Color space : YUV
Chroma subsampling : 4:2:0
Bit depth : 8 bits
Scan type : Progressive
Compression mode : Lossy
Bits/(Pixel*Frame) : 0.244
Stream size : 1.18 GiB (81%)
Writing library : XviD 73
Audio #1
ID : 1
Format : AC-3
Format/Info : Audio Coding 3
Mode extension : CM (complete main)
Format settings, Endianness : Big
Codec ID : 2000
Duration : 1h 42mn
Bit rate mode : Constant
Bit rate : 384 Kbps
Channel(s) : 6 channels
Channel positions : Front: L C R, Side: L R, LFE
Sampling rate : 48.0 KHz
Bit depth : 16 bits
Compression mode : Lossy
Stream size : 281 MiB (19%)
Alignment : Split accross interleaves
Interleave, duration : 40 ms (1.00 video frame)
Interleave, preload duration : 500 ms
Download / Скачать

Хотите скачать бесплатно? Зарегистрируйтесь на сайте (ссылка на регистрацию). Pirat.ca - самый быстрый торрент трекер в рунете!

Как скачивать  ·   Что такое торрент  ·   Рейтинг и ограничения

Су-34 ®

Гроза морей

13027

Пост 27-Июл-2017 16:15 (спустя 6 часов)

[Q] 

отличный фильм , думаю еще пересмотреть как нить!!
[Профиль]  [ЛС] 

Hippopotam

Корсар

Пост 02-Авг-2017 12:40 (спустя 5 дней)

[Q] 

Слабенькие неинтересные потуги на Фильм...Вымученно все, избитые давно клише...Плоские герои со странной мотивацией...И это - от режиссера прекрасного "Вора"...Жаль. Отказать
[Профиль]  [ЛС] 
Показать сообщения:    
Ответить на тему

Текущее время: Сегодня 10:27

Часовой пояс: GMT + 4



Вы не можете начинать темы
Вы не можете отвечать на сообщения
Вы не можете редактировать свои сообщения
Вы не можете удалять свои сообщения
Вы не можете голосовать в опросах
Вы не можете прикреплять файлы к сообщениям
Вы не можете скачивать файлы

▼ Вниз