Эксперимент «Офис» / The Belko Experiment (Грег МакЛин / Greg McLean) [2016 г., триллер, боевик, ужасы, BDRip] VO Sub (Rus) + Original (Eng)

Ответить на тему
 
Автор
Сообщение

Пост 13-Авг-2017 11:58

[Q] 

Дядя Витя

-Эксперимент «Офис»

The Belko Experiment
-- Год выпуска: 2016 г.
Бюджет: $5 000 000
Производство: США, Колумбия
Продолжительность: 01:28:45
Жанр: триллер, боевик, ужасы
Мировая премьера: 10 сентября 2016
Режиссёр: Грег МакЛин / Greg McLean
Студия: BH Tilt, Blumhouse Pr., Itaca Films
Оригинальный аудиопоток: английский
Перевод: Любительский (одноголосый, закадровый) [Сергей Малиновский]-В ролях:
Джон Галлахер мл., Тони Голдуин, Адриа Архона, Джон К. МакГинли, Мелони Диас, Овайн Йомэн, Шон Ганн, Брент Секстон, Джош Бренер, Давид Дастмалчян-Описание:
80 сотрудников международной корпорации заблокированы в многоэтажном офисном здании. По внутренней связи компании неизвестный голос призывает их участвовать в смертельной игре на выживание. Они должны будут выполнить ряд изощренных заданий, первое из которых — убить коллег, вызывающих наибольшее раздражение. Иначе устроители эксперимента пустят в расход всех.
Игра началась.-
Контейнер: AVI
Аудио кодек: AC3
Видео кодек: XviD
Качество видео: BDRip
Cубтитры: русские (отдельно)
Формат субтитров: softsub (SRT)
Аудио: Dolby Audio Coding 3 | 48.0 KHz | 2 ch | 192.0 Kbps
Аудио #2: Dolby Audio Coding 3 | 48.0 KHz | 2 ch | 256.0 Kbps
Видео: XVID Video | 720x304 | 1899 Кbps | 23,976 fps | 0.362 bit/pixel
Общее
Полное имя : The_Belko_Experiment_2016_[pirat.ca].avi
Формат : AVI
Формат/Информация : Audio Video Interleave
Размер файла : 1,46 Гбайт
Продолжительность : 1 ч. 28 м.
Общий поток : 2361 Кбит/сек
Программа кодирования : VirtualDubMod 1.5.10.2 (build 2540/release)
Библиотека кодирования : VirtualDubMod build 2540/release
Видео
Идентификатор : 0
Формат : MPEG-4 Visual
Профиль формата : Advanced [email protected]
Параметр BVOP формата : 1
Параметр QPel формата : Нет
Параметр GMC формата : Без точки перехода
Параметр матрицы формата : Выборочная
Идентификатор кодека : XVID
Идентификатор кодека/Подсказка : XviD
Продолжительность : 1 ч. 28 м.
Битрейт : 1899 Кбит/сек
Ширина : 720 пикселей
Высота : 304 пикселя
Соотношение сторон : 2,35:1
Частота кадров : 23,976 (24000/1001) кадра/сек
Цветовое пространство : YUV
Субдискретизация насыщенности : 4:2:0
Битовая глубина : 8 бит
Тип развёртки : Прогрессивная
Метод сжатия : С потерями
Бит/(Пиксели*Кадры) : 0.362
Размер потока : 1,18 Гбайт (80%)
Библиотека кодирования : XviD 73
Аудио #1
Идентификатор : 1
Формат : AC-3
Формат/Информация : Audio Coding 3
Параметр Endianness формата : Big
Идентификатор кодека : 2000
Продолжительность : 1 ч. 28 м.
Вид битрейта : Постоянный
Битрейт : 192 Кбит/сек
Каналы : 2 канала
Расположение каналов : Front: L R
Частота : 48,0 КГц
Частота кадров : 31,250 кадров/сек (1536 spf)
Битовая глубина : 16 бит
Метод сжатия : С потерями
Размер потока : 122 Мбайт (8%)
Выравнивание : Разделение по промежуткам
Продолжительность промежутка : 42 мс. (1,00 видеокадр)
Время предзагрузки промежутка : 500 мс.
ServiceKind/String : Complete Main
Аудио #2
Идентификатор : 2
Формат : AC-3
Формат/Информация : Audio Coding 3
Параметр Endianness формата : Big
Идентификатор кодека : 2000
Продолжительность : 1 ч. 28 м.
Вид битрейта : Постоянный
Битрейт : 256 Кбит/сек
Каналы : 2 канала
Расположение каналов : Front: L R
Частота : 48,0 КГц
Частота кадров : 31,250 кадров/сек (1536 spf)
Битовая глубина : 16 бит
Метод сжатия : С потерями
Размер потока : 163 Мбайт (11%)
Выравнивание : Разделение по промежуткам
Продолжительность промежутка : 42 мс. (1,00 видеокадр)
Время предзагрузки промежутка : 500 мс.
ServiceKind/String : Complete Main
Download / Скачать

Хотите скачать бесплатно? Зарегистрируйтесь на сайте (ссылка на регистрацию). Pirat.ca - самый быстрый торрент трекер в рунете!

Как скачивать  ·   Что такое торрент  ·   Рейтинг и ограничения



Последний раз редактировалось: Дядя Витя (2017-08-13 20:50), всего редактировалось 1 раз

Мерзавец

Морской Волк

Пост 13-Авг-2017 15:42 (спустя 3 часа)

[Q] 

нормальный такой, мясокомбинат.....получился! Приятного просмотра :)
[Профиль]  [ЛС] 

Дядя Витя ®

60622

Пост 13-Авг-2017 17:48 (спустя 2 часа 6 минут)

[Q] 

803965мясокомбинат.....получился
Ну, эт нормально)

_________________
?
[Профиль]  [ЛС] 

sanchela9999

Корсар

Пост 13-Авг-2017 18:40 (спустя 51 минута)

[Q] 

Баклаху закатил!Буду глядзеть)
[Профиль]  [ЛС] 

zlotosalien

Флибустьер

Пост 13-Авг-2017 19:57 (спустя 1 час 16 минут)

[Q] 

Сделайте СЭМПЛ.
[Профиль]  [ЛС] 

bull271174New

Штурман

Пост 14-Авг-2017 09:13 (спустя 13 часов)

[Q] 

Фуфло галимое. Резня без смысла.
[Профиль]  [ЛС] 

zlotosalien

Флибустьер

Пост 14-Авг-2017 12:20 (спустя 3 часа)

[Q] 

Переходя по ссылке, СЕМПЛА нет.
[Профиль]  [ЛС] 

sanchela9999

Корсар

Пост 14-Авг-2017 13:41 (спустя 1 час 21 минута)

[Q] 

Фильм не плох...Любителям жанра самое оно!Мне понравилось! Спасибо!!!
[Профиль]  [ЛС] 

igorexa1111

Флибустьер

Пост 14-Авг-2017 14:05 (спустя 23 минуты)

[Q] 

Дядя Витя что за отрыжка?
[Профиль]  [ЛС] 

hevard

Гроза морей

2160

Пост 20-Авг-2017 16:33 (спустя 6 дней)

[Q] 

Производство: США, Колумбия
Вот так отмываются бабки от продажи кокоса?

_________________
-Я старый пират и не знаю слов лицензионного соглашения...
[Профиль]  [ЛС] 

Кристина119

Гроза морей

Пост 24-Авг-2017 18:41 (спустя 4 дня)

[Q] 

Мочилово мочиловом)
[Профиль]  [ЛС] 

sektorram

Морской Волк

Пост 01-Окт-2017 17:43 (спустя 1 месяц 6 дней)

[Q] 

норм фильм, мне понравился На любителя Спасибо!!!
[Профиль]  [ЛС] 

Пост 05-Ноя-2017 00:29 (спустя 1 месяц 3 дня)

Топик был перенесен из форума Новинки (HD|DVD|BD| TV|SAT|PDTV| - Rips) в форум Фильмы 2010 - 2017 г.г.
ara1205
 

lexaspirit

Пост 21-Мар-2018 21:35 (спустя 5 месяцев 20 дней)

[Q] 

Фильм нормальный такой. Показывает на что готов человек ради спасения собственной жизни

_________________
-------------------- ----------------------
[Профиль]  [ЛС] 

sztksales

Морской Волк

388

Пост 30-Апр-2018 23:29 (спустя 1 месяц 9 дней)

[Q] 

Фильм отстой..
По ходу в голове у режисера сценарий возник после того, как он обкурился дурман травой. Трафик потрачен зря!

_________________
[Профиль]  [ЛС] 
Показать сообщения:    
Ответить на тему

Текущее время: Сегодня 16:56

Часовой пояс: GMT + 4



Вы не можете начинать темы
Вы не можете отвечать на сообщения
Вы не можете редактировать свои сообщения
Вы не можете удалять свои сообщения
Вы не можете голосовать в опросах
Вы не можете прикреплять файлы к сообщениям
Вы не можете скачивать файлы

Майнать ▼