Тетрадь смерти / Death Note (Адам Вингард / Adam Wingard) [2017 г., ужасы, фэнтези, боевик, триллер, детектив, приключения, WEB-DLRip-AVC] VO (AniStar)

Ответить на тему
 
Автор
Сообщение

Пост 26-Авг-2017 16:20

[Q] 

Evgesha 76

Корсар

-Тетрадь смерти / Death Note -- Производство: США.Vertigo Entertainment Witten Pictures
Год выпуска: 2017 г.
Жанр: ужасы, фэнтези, боевик, триллер, детектив, приключения
Продолжительность: 01:40:16
Мировая премьера: 24 августа 2017
Перевод: Любительский (одноголосый, закадровый)-AniStar
Режиссёр: Адам Вингард / Adam Wingard-В ролях: Маргарет Куэлли, Лейкит Стэнфилд, Уиллем Дефо, Нат Вулф, Шей Уигэм, Маси Ока, Майкл Шамус Уайлз, Пол МакДжиллион, Олена Медвид, Лия Лам.-Описание: Способный студент Лайт находит загадочную тетрадь смерти, которая может убить любого, чье имя в нее вписать. Парень решает начать миссию по очистке улиц от преступников. Вскоре студент-линчеватель обнаруживает, что его преследует известный профайлер ФБР, скрывающийся под псевдонимом L.-
Качество видео: WEB-DLRip-AVC
Контейнер: MKV
Видео кодек: H.264
Аудио кодек: MP3
Видео: 720x304, 2019 kb/s, 23,976 fps,(2.40:1),(0.385)bit/pix.
Аудио: MP3, 320 kbps, 44,1 KHz, 2 ch
Cубтитры: отсутствуют
Общее
Уникальный идентификатор : 237704189677355951303448970220966126663 (0xB2D42963E6385FA88AA16A93B6262447)
Полное имя :Death Note.mkv
Формат : Matroska
Версия формата : Version 4 / Version 2
Размер файла : 1,64 Гбайт
Продолжительность : 1 ч. 40 м.
Общий поток : 2341 Кбит/сек
Дата кодирования : UTC 2017-08-26 06:30:28
Программа кодирования : mkvmerge v15.0.0 ('Duel with the Devil') 64-bit
Библиотека кодирования : libebml v1.3.5 + libmatroska v1.4.5
Видео
Идентификатор : 1
Формат : MPEG-4 Visual
Профиль формата : [email protected]
Параметр BVOP формата : Нет
Параметр QPel формата : Нет
Параметр GMC формата : Без точки перехода
Параметр матрицы формата : Default (H.263)
Идентификатор кодека : V_MS/VFW/FOURCC / XVID
Идентификатор кодека/Подсказка : XviD
Продолжительность : 1 ч. 40 м.
Битрейт : 2019 Кбит/сек
Ширина : 720 пикселей
Высота : 304 пикселя
Соотношение сторон : 2,40:1
Соотношение сторон в оригинале : 2,40:1
Режим частоты кадров : Постоянный
Частота кадров : 23,976 кадра/сек
Цветовое пространство : YUV
Субдискретизация насыщенности : 4:2:0
Битовая глубина : 8 бит
Тип развёртки : Прогрессивная
Метод сжатия : С потерями
Бит/(Пиксели*Кадры) : 0.385
Размер потока : 1,41 Гбайт (86%)
Библиотека кодирования : Lavc57.100.103
Default : Да
Forced : Нет
Аудио
Идентификатор : 2
Формат : MPEG Audio
Версия формата : Version 1
Профиль формата : Layer 3
Идентификатор кодека : A_MPEG/L3
Идентификатор кодека/Подсказка : MP3
Продолжительность : 1 ч. 40 м.
Вид битрейта : Постоянный
Битрейт : 320 Кбит/сек
Каналы : 2 канала
Частота : 44,1 КГц
Частота кадров : 38,281 кадров/сек (1152 SPF)
Метод сжатия : С потерями
Размер потока : 230 Мбайт (14%)
Язык : Japanese
Default : Да
Forced : Нет
Download / Скачать

Хотите скачать бесплатно? Зарегистрируйтесь на сайте (ссылка на регистрацию). Pirat.ca - самый быстрый торрент трекер в рунете!

Как скачивать  ·   Что такое торрент  ·   Рейтинг и ограничения

Кристина119

Гроза морей

Пост 26-Авг-2017 16:25 (спустя 5 минут)

[Q] 

Спасибо забираю, давно ужастики не смотрела Лови бочку
[Профиль]  [ЛС] 

bull271174New

Штурман

Пост 27-Авг-2017 17:43 (спустя 1 день 1 час)

[Q] 

Скучный и нудный
[Профиль]  [ЛС] 

cssergey

Гроза морей

Пост 27-Авг-2017 17:54 (спустя 10 минут)

[Q] 

Перевод пиз...ц
[Профиль]  [ЛС] 

Danke1

Лоцман

Пост 31-Авг-2017 01:21 (спустя 3 дня)

[Q] 

Те, кому нравится сериал "Тетрадь смерти" не смотрите, это трэш, я только из-за Уильяма Дефо терпел, но это просто говно, два часа говна, ничего общего с оригинальной идее. Л негр, Лайт лох, Мия-миса {мат} плоская, всё два часа идет через допу и катится к куям.
[Профиль]  [ЛС] 

ketzer

Корсар

Пост 13-Сен-2017 23:06 (спустя 13 дней)

[Q] 

Фильм хороший сам по себе, но совершенно непонятно, зачем снят. В отрыве от аниме понять его было бы невозможно.
[Профиль]  [ЛС] 

maksimbond

Корсар

2

Пост 15-Сен-2017 20:39 (спустя 1 день 21 час)

[Q] 

Я не смог досмотреть, это просто ужас!!!! низкопробное Г.
нетфликс меня сильно удивил... ни кому не советую!!!!!
[Профиль]  [ЛС] 

Пост 05-Ноя-2017 00:31 (спустя 1 месяц 19 дней)

Топик был перенесен из форума Новинки (HD|DVD|BD| TV|SAT|PDTV| - Rips) в форум Фильмы 2010 - 2017 г.г.
ara1205
 

bnm

Морской Волк

Пост 27-Апр-2018 21:43 (спустя 7 месяцев 12 дней)

[Q] 

Спасибо!!! Пиратка рулит!
[Профиль]  [ЛС] 

dl22

Морской Волк

Пост 13-Май-2018 17:17 (спустя 15 дней)

[Q] 

На любителя
[Профиль]  [ЛС] 
Показать сообщения:    
Ответить на тему

Текущее время: Сегодня 15:25

Часовой пояс: GMT + 4



Вы не можете начинать темы
Вы не можете отвечать на сообщения
Вы не можете редактировать свои сообщения
Вы не можете удалять свои сообщения
Вы не можете голосовать в опросах
Вы не можете прикреплять файлы к сообщениям
Вы не можете скачивать файлы

Майнать ▼