Уважаемый Гость!
Вы можете поддержать проект и зарегистрироваться у наших партнеров - онлайн-стратегия MyLands. При регистрации в игре Вы получите код, который сможете активировать после регистрации на pirat.ca и получить 1000 дублонов.

Ваш код:
fa815ad710998ea99950c036b358aa9afedd6817
 
     

Твин Пикс: Главная концепция сериала / The main concept of the series Twin Peaks [2017 г., WEB-DLRip] Original (Rus) + Subs (Eng)

Ответить на тему
 
Автор
Сообщение

Пост 26-Сен-2017 17:43

[Q] 

lexshowon

-Твин Пикс: Главная концепция сериала / The main concept of the series Twin Peaks-- Название: Твин Пикс: Главная концепция сериала
Оригинальное название: The main concept of the series Twin Peaks
Год выпуска: 2017 г.
Страна: Россия
Жанр: Юмор
Продолжительность: 00:56:28
Перевод: Не требуется
Оригинальный аудиопоток: русский-Описание:
Что хотел показать Дэвид Линч в своей картине Твин Пикс? Какие идеи были реализованы? И что предстоит реализовать?
Доступным и понятным языком рассказывается основная концепция сериала «Твин Пикс» и приквела «Огонь иди со мной».-Качество видео: WEB-DLRip
Контейнер: MP4
Стандарт разрешения: 720p
Видео кодек: H.264
Аудио кодек: AAC
Видео: AVC/H.264, 1280x720, 25 fps, ~3766 Кбит/сек
Аудио: AAC, 191 kbps, 2 ch, 44.1 KHz
Cубтитры: английские
Формат субтитров: hardsub (неотключаемые)
бщее
Полное имя : C:\Users\Admin PC\Downloads\Загрузка7\Twin Peaks\Часть I. Главная концепция сериала Твин Пикс - The main concept of the series Twin Peaks.mp4
Формат : MPEG-4
Профиль формата : Base Media / Version 2
Идентификатор кодека : mp42 (isom/mp42)
Размер файла : 855 Мбайт
Продолжительность : 56 м. 28 с.
Режим общего битрейта : Переменный
Общий поток : 2117 Кбит/сек
Дата кодирования : UTC 2017-09-15 10:33:40
Дата пометки : UTC 2017-09-15 10:33:40
gsst : 0
gstd : 3388696
Видео
Идентификатор : 1
Формат : AVC
Формат/Информация : Advanced Video Codec
Профиль формата : [email protected]
Настройки формата : CABAC / 1 Ref Frames
Параметр CABAC формата : Да
Параметр RefFrames формата : 1 кадр
Параметр GOP формата : M=1, N=60
Идентификатор кодека : avc1
Идентификатор кодека/Информация : Advanced Video Coding
Продолжительность : 56 м. 28 с.
Битрейт : 1922 Кбит/сек
Максимальный битрейт : 3766 Кбит/сек
Ширина : 1280 пикселей
Высота : 720 пикселей
Соотношение сторон : 16:9
Режим частоты кадров : Постоянный
Частота кадров : 25,000 кадров/сек
Цветовое пространство : YUV
Субдискретизация насыщенности : 4:2:0
Битовая глубина : 8 бит
Тип развёртки : Прогрессивная
Бит/(Пиксели*Кадры) : 0.083
Размер потока : 776 Мбайт (91%)
Дата пометки : UTC 2017-09-15 10:34:01
Цветовой диапазон : Limited
Основные цвета : BT.709
Характеристики трансфера : BT.709
Коэффициенты матрицы : BT.709
Аудио
Идентификатор : 2
Формат : AAC
Формат/Информация : Advanced Audio Codec
Профиль формата : LC
Идентификатор кодека : mp4a-40-2
Продолжительность : 56 м. 28 с.
Вид битрейта : Переменный
Битрейт : 192 Кбит/сек
Максимальный битрейт : 201 Кбит/сек
Каналы : 2 канала
Расположение каналов : Front: L R
Частота : 44,1 КГц
Частота кадров : 43,066 кадра/сек (1024 SPF)
Метод сжатия : С потерями
Размер потока : 77,6 Мбайт (9%)
Заголовок : IsoMedia File Produced by Google, 5-11-2011
Язык : English
Дата кодирования : UTC 2017-09-15 10:33:53
Дата пометки : UTC 2017-09-15 10:34:01
Download / Скачать

Хотите скачать бесплатно? Зарегистрируйтесь на сайте (ссылка на регистрацию). Pirat.ca - самый быстрый торрент трекер в рунете!

Как скачивать  ·   Что такое торрент  ·   Рейтинг и ограничения



Последний раз редактировалось: lexshowon (2017-10-05 12:08), всего редактировалось 1 раз
Показать сообщения:    
Ответить на тему

Текущее время: Сегодня 15:15

Часовой пояс: GMT + 4



Вы не можете начинать темы
Вы не можете отвечать на сообщения
Вы не можете редактировать свои сообщения
Вы не можете удалять свои сообщения
Вы не можете голосовать в опросах
Вы не можете прикреплять файлы к сообщениям
Вы не можете скачивать файлы

▼ Вниз