Уважаемый Гость!
Вы можете поддержать проект и зарегистрироваться у наших партнеров - онлайн-стратегия MyLands. При регистрации в игре Вы получите код, который сможете активировать после регистрации на pirat.ca и получить 1000 дублонов.

Ваш код:
0247f3e01dbfa58a27b7c0b9fce726d46599dd92
 
     

Напарник (Александр Андрющенко) [2017 г., Комедия, приключения, WEB-DL, 720p]

Ответить на тему
 
Автор
Сообщение

Пост 12-Окт-2017 23:34

[Q] 

dimas1000

Морской Волк

-Напарник«Новорождён и очень опасен»-- Год выпуска: 2017
Выпущено: Россия, Vice Films
Жанр: комедия
Продолжительность: 01:32:35
Озвучивание: Оригинал [iTunes]
Субтитры: Отсутствуют
Режиссёр: Александр Андрющенко
В ролях: Сергей Гармаш, Андрей Назимов, Лиза Арзамасова, Ксения Лаврова-Глинка, Ян Цапник, Филипп Яицкий, Андрей Золотарев, Сахат Дурсунов, Евгений Коряковский, Юнчен Жуань-Описание:
Неудачная спецоперация заканчивается для майора Хромова переселением в тело маленького ребенка. И всему виной проклятие гадалки! Но даже пересев из полицейской машины в детскую коляску, он умудряется доставить немало хлопот преступному синдикату на Дальнем Востоке. При этом мама ребенка не подозревает, что ее сын способен вести жесткие допросы, а папа вынужден стать невольным «напарником» Хромова. Ведь для того, чтобы вернуть все на свои места, им предстоит закончить спецоперацию, а значит, отец с младенцем начинают охоту на самого опасного главаря местной мафии.
-Качество видео: WEB-DL 720p
Контейнер: MKV
Видео кодек: MPEG4 AVC
Аудио кодек: AC3
Видео: AVC at 2973 Кбит/сек: 1280 x 536 (2.388) at 24.000 fps
Аудио: AC-3 at 384 Кбит/сек: 6 каналов, 48,0 КГц
Общее
Полное имя : D:\Напарник (2017).mkv
Формат : Matroska
Версия формата : Version 2
Размер файла : 2,86 Гбайт
Продолжительность : 1 ч. 32 м.
Общий поток : 4426 Кбит/сек
Дата кодирования : UTC 2017-10-11 18:07:30
Программа кодирования : mkvmerge v8.3.0 ('Over the Horizon') 64bit
Библиотека кодирования : libebml v1.3.1 + libmatroska v1.4.2
Видео
Идентификатор : 1
Формат : AVC
Формат/Информация : Advanced Video Codec
Профиль формата : [email protected]
Настройки формата : 2 Ref Frames
Параметр CABAC формата : Нет
Параметр RefFrames формата : 2 кадра
Идентификатор кодека : V_MPEG4/ISO/AVC
Продолжительность : 1 ч. 32 м.
Битрейт : 4040 Кбит/сек
Ширина : 1280 пикселей
Высота : 536 пикселей
Соотношение сторон : 2,40:1
Режим частоты кадров : Постоянный
Частота кадров : 24,000 кадра/сек
Цветовое пространство : YUV
Субдискретизация насыщенности : 4:2:0
Битовая глубина : 8 бит
Тип развёртки : Прогрессивная
Бит/(Пиксели*Кадры) : 0.245
Размер потока : 2,61 Гбайт (91%)
Язык : English
Default : Да
Forced : Нет
Цветовой диапазон : Limited
Основные цвета : BT.709
Характеристики трансфера : BT.709
Коэффициенты матрицы : BT.709
Аудио
Идентификатор : 2
Формат : AC-3
Формат/Информация : Audio Coding 3
Параметр Endianness формата : Big
Идентификатор кодека : A_AC3
Продолжительность : 1 ч. 32 м.
Вид битрейта : Постоянный
Битрейт : 384 Кбит/сек
Каналы : 6 каналов
Расположение каналов : Front: L C R, Side: L R, LFE
Частота : 48,0 КГц
Частота кадров : 31,250 кадров/сек (1536 SPF)
Битовая глубина : 16 бит
Метод сжатия : С потерями
Размер потока : 254 Мбайт (9%)
Язык : Russian
ServiceKind/String : Complete Main
Default : Да
Forced : Нет
Меню
00:00:00.000 : en:Глава 1
00:07:11.958 : en:Глава 2
00:13:16.041 : en:Глава 3
00:20:34.041 : en:Глава 4
00:27:24.874 : en:Глава 5
00:32:59.874 : en:Глава 6
00:38:10.749 : en:Глава 7
00:45:00.332 : en:Глава 8
00:49:46.832 : en:Глава 9
00:57:03.165 : en:Глава 10
01:03:57.123 : en:Глава 11
01:10:10.123 : en:Глава 12
01:16:10.081 : en:Глава 13
01:20:38.581 : en:Глава 14
Download / Скачать

Хотите скачать бесплатно? Зарегистрируйтесь на сайте (ссылка на регистрацию). Pirat.ca - самый быстрый торрент трекер в рунете!

Как скачивать  ·   Что такое торрент  ·   Рейтинг и ограничения

kinstintin

Гроза морей

Пост 13-Окт-2017 22:53 (спустя 23 часа)

[Q] 

спасибо!
Автору респект!!!
[Профиль]  [ЛС] 

Кристина119

Флибустьер

Пост 15-Окт-2017 13:53 (спустя 1 день 15 часов)

[Q] 

Спасибо, давно ждали Лови бочку
[Профиль]  [ЛС] 

xgoliy

Шкипер

Пост 15-Окт-2017 15:29 (спустя 1 час 36 минут)

[Q] 

Спасибо Лови бочку
[Профиль]  [ЛС] 

Незнайка

Флибустьер

Пост 15-Окт-2017 16:05 (спустя 36 минут)

[Q] 

Классный фильм.
Спасибо!!!
[Профиль]  [ЛС] 
Показать сообщения:    
Ответить на тему

Текущее время: Сегодня 06:28

Часовой пояс: GMT + 4



Вы не можете начинать темы
Вы не можете отвечать на сообщения
Вы не можете редактировать свои сообщения
Вы не можете удалять свои сообщения
Вы не можете голосовать в опросах
Вы не можете прикреплять файлы к сообщениям
Вы не можете скачивать файлы

▼ Вниз