Уважаемый Гость!
Вы можете поддержать проект и зарегистрироваться у наших партнеров - онлайн-стратегия MyLands. При регистрации в игре Вы получите код, который сможете активировать после регистрации на pirat.ca и получить 1000 дублонов.

Ваш код:
269c33af571d9140442bf2c089ea007adc65586e
 
     

Напарник (Александр Андрющенко) [2017 г., Комедия, приключения, WEB-DL, 1080p]

Ответить на тему
 
Автор
Сообщение

Пост 12-Окт-2017 23:58

[Q] 

dimas1000

Штурман

-Напарник«Новорождён и очень опасен»-- Год выпуска: 2017
Выпущено: Россия, Vice Films
Жанр: комедия
Продолжительность: 01:32:35
Озвучивание: Оригинал [iTunes]
Субтитры: Отсутствуют
Режиссёр: Александр Андрющенко
В ролях: Сергей Гармаш, Андрей Назимов, Лиза Арзамасова, Ксения Лаврова-Глинка, Ян Цапник, Филипп Яицкий, Андрей Золотарев, Сахат Дурсунов, Евгений Коряковский, Юнчен Жуань-Описание:
Неудачная спецоперация заканчивается для майора Хромова переселением в тело маленького ребенка. И всему виной проклятие гадалки! Но даже пересев из полицейской машины в детскую коляску, он умудряется доставить немало хлопот преступному синдикату на Дальнем Востоке. При этом мама ребенка не подозревает, что ее сын способен вести жесткие допросы, а папа вынужден стать невольным «напарником» Хромова. Ведь для того, чтобы вернуть все на свои места, им предстоит закончить спецоперацию, а значит, отец с младенцем начинают охоту на самого опасного главаря местной мафии.
-Качество: WEB-DL 1080p
Формат: MKV
Видео кодек: AVC
Аудио кодек: AC3
Видео: AVC, 1920x806 (2.40:1), 24.000 fps, 4 440 Kbps (0.120 bit/pixel)
Аудио: AC-3, 48.0 KHz, 6 ch, 384 Kbps, CBR
Общее
Полное имя : D:\naparnik 2017 [WEB-DL 1080p].mkv
Формат : Matroska
Версия формата : Version 2
Размер файла : 3,18 Гбайт
Продолжительность : 1 ч. 32 м.
Общий поток : 4921 Кбит/сек
Название фильма : Напарник.2017.WEB-DL.[1080p].NNMClub
Дата кодирования : UTC 2017-10-11 19:15:13
Программа кодирования : mkvmerge v8.3.0 ('Over the Horizon') 64bit
Библиотека кодирования : libebml v1.3.1 + libmatroska v1.4.2
Видео
Идентификатор : 1
Формат : AVC
Формат/Информация : Advanced Video Codec
Профиль формата : [email protected]
Параметр CABAC формата : Да
Параметр RefFrames формата : 5 кадров
Идентификатор кодека : V_MPEG4/ISO/AVC
Продолжительность : 1 ч. 32 м.
Битрейт : 4440 Кбит/сек
Ширина : 1920 пикселей
Высота : 806 пикселей
Соотношение сторон : 2,40:1
Режим частоты кадров : Постоянный
Частота кадров : 24,000 кадра/сек
Цветовое пространство : YUV
Субдискретизация насыщенности : 4:2:0
Битовая глубина : 8 бит
Тип развёртки : Прогрессивная
Бит/(Пиксели*Кадры) : 0.120
Размер потока : 2,87 Гбайт (90%)
Язык : Russian
Default : Да
Forced : Нет
Цветовой диапазон : Limited
Основные цвета : BT.709
Характеристики трансфера : BT.709
Коэффициенты матрицы : BT.709
Аудио
Идентификатор : 2
Формат : AC-3
Формат/Информация : Audio Coding 3
Параметр Endianness формата : Big
Идентификатор кодека : A_AC3
Продолжительность : 1 ч. 32 м.
Вид битрейта : Постоянный
Битрейт : 384 Кбит/сек
Каналы : 6 каналов
Расположение каналов : Front: L C R, Side: L R, LFE
Частота : 48,0 КГц
Частота кадров : 31,250 кадров/сек (1536 SPF)
Битовая глубина : 16 бит
Метод сжатия : С потерями
Размер потока : 254 Мбайт (8%)
Заголовок : iTunes
Язык : Russian
ServiceKind/String : Complete Main
Default : Да
Forced : Нет
Меню
00:00:00.000 : en:Глава 1
00:07:11.958 : en:Глава 2
00:13:16.041 : en:Глава 3
00:20:34.041 : en:Глава 4
00:27:24.874 : en:Глава 5
00:32:59.874 : en:Глава 6
00:38:10.749 : en:Глава 7
00:45:00.332 : en:Глава 8
00:49:46.832 : en:Глава 9
00:57:03.165 : en:Глава 10
01:03:57.123 : en:Глава 11
01:10:10.123 : en:Глава 12
01:16:10.081 : en:Глава 13
01:20:38.581 : en:Глава 14
Download / Скачать

Хотите скачать бесплатно? Зарегистрируйтесь на сайте (ссылка на регистрацию). Pirat.ca - самый быстрый торрент трекер в рунете!

Как скачивать  ·   Что такое торрент  ·   Рейтинг и ограничения

Alingva

Легенда

418

Пост 13-Окт-2017 01:29 (спустя 1 час 30 минут)

[Q] 

Автору раздачи Спасибо!!! , но не слишком ли "много" скриншотов?

_________________
Если Вам кажется что у Вас нимб над головой, то не обращайте на него внимание - это просто мания величия!
[Профиль]  [ЛС] 

mb1969

Корсар

Пост 13-Окт-2017 08:41 (спустя 7 часов)

[Q] 

а что с рейтингом?
[Профиль]  [ЛС] 

RostislavKis

Морской Волк

17

Пост 16-Окт-2017 14:53 (спустя 3 дня)

[Q] 

Как фильм, смотреть можно? Чето я хорошего о нем не слышал =)

_________________
[Профиль]  [ЛС] 

glot

Матрос

Пост 18-Окт-2017 22:38 (спустя 2 дня 7 часов)

[Q] 

Отличный фильм,особенно для семейного просмотра. Даже иногда можно и посмеяться.
[Профиль]  [ЛС] 
Показать сообщения:    
Ответить на тему

Текущее время: Сегодня 08:45

Часовой пояс: GMT + 4



Вы не можете начинать темы
Вы не можете отвечать на сообщения
Вы не можете редактировать свои сообщения
Вы не можете удалять свои сообщения
Вы не можете голосовать в опросах
Вы не можете прикреплять файлы к сообщениям
Вы не можете скачивать файлы

▼ Вниз