Уважаемый Гость!
Вы можете поддержать проект и зарегистрироваться у наших партнеров - онлайн-стратегия MyLands. При регистрации в игре Вы получите код, который сможете активировать после регистрации на pirat.ca и получить 1000 дублонов.

Ваш код:
269c33af571d9140442bf2c089ea007adc65586e
 
     

Штрафник Серии: 1-12 из 12 (Олег Фомин) [2016 г., приключения, детектив, HDTV, (1080i)]

Ответить на тему
 
Автор
Сообщение

Пост 13-Окт-2017 01:24

[Q] 

dimas1000

Штурман

-Штрафник-- Производство: Россия
Жанр: приключения, детектив
Год выпуска: 2016 г.
Продолжительность: 00:51:00
Режиссёр: Олег Фомин-В ролях: Кирилл Сафонов, Иева Андреевайте, Екатерина Волкова, Максим Дрозд, Анастасия Немец, Константин Милованов, Олег Фомин, Евгений Мундум, Рустам Сагдуллаев, Евгений Куршинский, Дмитрий Куличков, Александр Шам, Михаил Дорожкин, Константин Гацалов, Денис Константинов-Описание: Много лет назад Сыч с малолетними подельниками втянул маленького Игната в ограбление склада с тушёнкой. Получилось так, что Игнат спас Сыча, попавшего в ловушку, но дальше их дороги разошлись. Сыч рад встрече и предлагает Игнату еще раз рискнуть, но тот отказывается. Заподозрив, что «кореш» что-то задумал, Игнат решает ему помешать. Однако несогласованная инициатива оборачивается для нашего героя арестом. На помощь приходит боевой товарищ капитана – начальник УГРО Тимошенко , он готов помочь Белову, при условии, что тот внедрится и ликвидирует опасную банду Горелого через старого знакомого - Сыча. Взамен Игнат будет реабилитирован и сможет вернуться к нормальной жизни. Игнат соглашается. Они вместе с Тимошенко организуют побег из тюрьмы, чтобы у Игната была «хорошая легенда». Игнат обосновывается в городе, живет в коммуналке, где знакомится с красавицей скрипачкой Виолой и боевой девчонкой Сашкой , которую поначалу принимает за мальчика. Они станут для Игната настоящей семьей. Но прежде, чем это случится, Игнату придется пройти полный опасностей путь, пока он, наконец, не доберется до Горелого. И тут Игната ждет большой сюрприз…-Качество видео: HDTV
Контейнер: TS
Видео кодек: MPEG4 AVC
Аудио кодек: AC3
Видео: MPEG-4 AVC, (1920x1080),4666 Кбит/с, 25.000 кадра/сек
Аудио: AC3, 2 ch,384 kbps (Rus) 48.0 KH Русский
Аудио: MP2, 2 ch,192 kbps (Rus) 48.0 KH Русский
Cубтитры: отсутствуют
Тип потока: Видео
Длительность: 00:51:38
Кодек: AVC
Кодек/описание: Advanced Video Codec
Кодек/профиль: [email protected]
Кодек/ID: 27
Кодек/CABAC: Yes
Кодек/ReFrames: 3 frames
Размеры изображения: 1920 x 1080 (16:9)
Частота кадров: 25.000 fps
Размер потока: 1.68 GiB (85%)
Битрейт: 4 666 Kbps
Стандарт: Component
Цветовое пространство: YUV
Тип развёртки: Interlaced
Колориметрия: 4:2:0
Глубина: 8 bits
:
Тип потока: Звук #1
Язык: Russian
Длительность: 00:51:38.208
Кодек: AC-3
Кодек/описание: Audio Coding 3
Кодек/ID: 6
Частота дискретизации: 48.0 KHz
Каналов: 6 channels
Битрейт: 384 Kbps
Битрейт/тип: Constant
Размер потока: 142 MiB (7%)
Глубина: 16 bits
Метод сжатия: Lossy
:
Тип потока: Звук #2
Язык: Russian
Длительность: 00:51:38.160
Кодек: MPEG Audio
Кодек/профиль: Layer 2
Кодек/ID: 3
Частота дискретизации: 48.0 KHz
Каналов: 2 channels
Битрейт: 192 Kbps
Битрейт/тип: Constant
Размер потока: 70.9 MiB (3%)
Метод сжатия: Lossy
Download / Скачать

Хотите скачать бесплатно? Зарегистрируйтесь на сайте (ссылка на регистрацию). Pirat.ca - самый быстрый торрент трекер в рунете!

Как скачивать  ·   Что такое торрент  ·   Рейтинг и ограничения

Показать сообщения:    
Ответить на тему

Текущее время: Сегодня 08:45

Часовой пояс: GMT + 4



Вы не можете начинать темы
Вы не можете отвечать на сообщения
Вы не можете редактировать свои сообщения
Вы не можете удалять свои сообщения
Вы не можете голосовать в опросах
Вы не можете прикреплять файлы к сообщениям
Вы не можете скачивать файлы

▼ Вниз